Šta je novo?
VIP
Učlanjen(a)
30.10.2010
Poruka
1.103
Zvizdan (2015) WEBRip x264 - BD4YU

EVWRnv5.jpg



Kod:
http://www.imdb.com/title/tt4593108/


Žanr Drama
Godina 2015
Redatelj Dalibor Matanić
Glavne uloge Goran Markovic, Nives Ivankovic, Dado Ćosić

Sinopsis

Zvizdan govori o zabranjenoj ljubavi, o njenoj fragilnosti, ali i o njenoj snazi. Ova filmska priča obuhvaća tri desetljeća, a smještena je u dva susjedna sela čija je povijest opterećena sukobima, netrpeljivošću i netolerancijom.

Prva je ljubavna priča smještena u 1991. godinu - predratna previranja, prve barikade i napetost koja među selima doseže vrhunac, nisu dobro okruženje ni za kakvu ljubav, a kamoli za dvoje mladih iz dvaju susjednih sela. Deset godina kasnije, rat je već gotov, ali ne i zaboravljen - ožiljci još nisu zacijelili i naši se protagonisti moraju suočiti s njima. Treća priča smještena je u 2011. godinu - ni zla, ni napetosti, ni sumnje nisu nestale, ali čini se da je vrijeme za novi početak.

c1sxwyw.jpg



Download
Hidden content
You need to react to this post in order to see this content.
 
MODERATOR
Učlanjen(a)
10.10.2009
Poruka
13.322
Zvizdan (2015) 1080p HD DD5.1 x264 by Wolf
(MKV) HQ

ApXWur4.jpg


Kod:
 https://www.imdb.com/title/tt4593108/

MediaInfo:
General
Unique ID : 276891291871236912803034443938430870055 (0xD04F52B27428EC0C754589A207826227)
Complete name : Zvizdan (2015) 1080p HD DD5.1 x264 by Wolf.mkv
Format : Matroska
Format version : Version 4
File size : 2.18 GiB
Duration : 1 h 58 min
Overall bit rate : 2 641 kb/s
Encoded date : UTC 2022-03-05 07:04:52
Writing application : mkvmerge v65.0.0 ('Too Much') 64-bit
Writing library : libebml v1.4.2 + libmatroska v1.6.4

Video
ID : 1
Format : AVC
Format/Info : Advanced Video Codec
Format profile : High@L5.1
Format settings : CABAC / 16 Ref Frames
Format settings, CABAC : Yes
Format settings, Reference : 16 frames
Codec ID : V_MPEG4/ISO/AVC
Duration : 1 h 58 min
Bit rate : 2 000 kb/s
Width : 1 920 pixels
Height : 800 pixels
Display aspect ratio : 2.40:1
Frame rate mode : Constant
Frame rate : 25.000 FPS
Color space : YUV
Chroma subsampling : 4:2:0
Bit depth : 8 bits
Scan type : Progressive
Bits/(Pixel*Frame) : 0.052
Stream size : 1.65 GiB (76%)
Title : Zvizdan (2015)
Writing library : x264 core 164 r3065 ae03d92
Encoding settings : cabac=1 / ref=16 / deblock=1:-2:-2 / analyse=0x3:0x133 / me=umh / subme=10 / psy=1 / psy_rd=1.00:0.25 / mixed_ref=1 / me_range=24 / chroma_me=1 / trellis=2 / 8x8dct=1 / cqm=0 / deadzone=6,6 / fast_pskip=1 / chroma_qp_offset=-4 / threads=6 / lookahead_threads=1 / sliced_threads=0 / nr=0 / decimate=0 / interlaced=0 / bluray_compat=0 / constrained_intra=0 / bframes=8 / b_pyramid=2 / b_adapt=2 / b_bias=0 / direct=3 / weightb=1 / open_gop=0 / weightp=2 / keyint=250 / keyint_min=25 / scenecut=40 / intra_refresh=0 / rc_lookahead=60 / rc=2pass / mbtree=1 / bitrate=2000 / ratetol=1.0 / qcomp=0.80 / qpmin=0 / qpmax=69 / qpstep=4 / cplxblur=20.0 / qblur=0.5 / vbv_maxrate=300000 / vbv_bufsize=300000 / nal_hrd=none / filler=0 / ip_ratio=1.10 / aq=1:0.50
Language : Croatian
Default : Yes
Forced : No
Color range : Limited
Color primaries : BT.709
colour_primaries_Original : BT.709
Transfer characteristics : BT.709
transfer_characteristics_Or : BT.709
Matrix coefficients : BT.709
matrix_coefficients_Origina : BT.709

Audio
ID : 2
Format : E-AC-3
Format/Info : Enhanced AC-3
Commercial name : Dolby Digital Plus
Codec ID : A_EAC3
Duration : 1 h 58 min
Bit rate mode : Constant
Bit rate : 640 kb/s
Channel(s) : 6 channels
Channel layout : L R C LFE Ls Rs
Sampling rate : 48.0 kHz
Frame rate : 31.250 FPS (1536 SPF)
Compression mode : Lossy
Delay relative to video : -5 ms
Stream size : 540 MiB (24%)
Title : Zvizdan (2015)
Language : Croatian
Service kind : Complete Main
Default : Yes
Forced : No

Text #1
ID : 3
Format : UTF-8
Codec ID : S_TEXT/UTF8
Codec ID/Info : UTF-8 Plain Text
Duration : 1 h 37 min
Bit rate : 41 b/s
Count of elements : 640
Stream size : 29.7 KiB (0%)
Title : ЗЕНИТ
Language : Macedonian
Default : No
Forced : No

Text #2
ID : 4
Format : UTF-8
Codec ID : S_TEXT/UTF8
Codec ID/Info : UTF-8 Plain Text
Duration : 1 h 37 min
Bit rate : 22 b/s
Count of elements : 641
Stream size : 16.1 KiB (0%)
Title : ZENIT
Language : Slovak
Default : No
Forced : No

epYscVA.png

Hidden content
You need to react to this post in order to see this content.
zbNKcak.jpg

Hidden content
You need to react to this post in order to see this content.
WFbBd8p.png

jq5WuBT.jpg
 
Poslednja izmena:
Top