Šta je novo?

Zona Zamfirova 2 Vrati se Zone (2017)

UREDNIK
Učlanjen(a)
24.03.2015
Poruka
5.129
Zona Zamfirova 2 Vrati se Zone (2017)


screen.png



ZZGDBee.jpg




info.png




Zona Zamfirova 2: Vrati se, Zone je srpski film iz 2017. godine u režiji Juga Radivojevića a po scenariju Ivane i Miroslava Mitića, napisanom po motivima knjige Zona Zamfirova, šta je bilo posle Dušice Milanović Marike.
Film je premijerno prikazan 24. januara 2017. godine u Beogradu.
Ovaj film, mada rađen od strane drugog režisera, sa potpuno drugom ekipom i po motivima pisca današnjice, zamišljen je kao nastavak filma Zdravka Šotre Zona Zamfirova iz 2002. godine, koji je rađen po motivima istoimenog romana Stevana Sremca.
Glumačke zvezde filma poput Ljiljane Stjepanović, Ljiljane Dragutinović, Tanje Bošković, Milana Laneta Gutovića, Nikole Ristanovskog, Ivana Bekjareva, Branka Đurića, Milana Kalinića, Stefana Buzurovića, Ive Stefanović i mnogih drugih učinili su da “Zona Zamfirova drugi deo” izazove ogromno interesovanje.

Opis:
Zona i Mane ne mogu da dobiju decu, a njihov idealni brak narušava Kalina koja je, iako udata, još uvek zaljubljena u Maneta. Lepu Zone igra mlada Brankica Sebastijanović, dok je uloga Maneta pripala Milanu Vasiću.
Skoro 15 godina nakon što je ekranizovana ova velika ljubavna saga, scenaristi Ivana i Miroslav Mitić napisali su priču o tome šta se dogodilo u braku čuvenog para dve godine nakon venčanja, režija je poverena Jugu Radivojeviću, a iza produkcije filma stoje Pink international i produkcija “Vrati se Zone”. Glavni protagonisti i njihova borba da sačuvaju brak i dalje su smešteni između 1905. i 1908. godine, a producent filma Miroslav Mitić, u čijoj produkciji je realizovana i prva Zona Zamfirova, ističe kako je kroz omiljenu ljubavnu priču dočarana lepota Srbije u tom periodu, ali i problemi sa kojima se suočavaju mladi bračni parovi. Obuhvaćeno je nekoliko krucijalnih porodičnih problema koji jednako tište mlade ljude i tad i sad.

Izvorni naslov: Vrati se Zone
Žanr: komedija, drama, romansa
Režija: Jug Radivojević
Scenario: Ivana Mitić, Miroslav Mitić
Producent: Miroslav Mitić, Željko Mitrović, Ivana Mitić, Jug Radivojević, Igor Trajković
Uloge: Brankica Sebastijanović, Milan Vasić, Nikola Ristanovski, Jugoslava Drašković, Ljiljana Stjepanović, jiljana Dragutinović, Nela Mihailović, Nikola Stošić, Gorica Popović, Milan Lane Gutović, Branko Djurić, Tanja Bošković, Dragana Mićalović, Milan Kalinić, Dušan Matejić, Ivan Bekjarev...
Muzika: Nenad Milosavljević
Izdavačka kuća: Zone Grad Produkcija, Pink film internacional, Art Vista
Godina: 2017
Trajanje: 96 min
Zemlja: Srbija
Jezik: srpski








screen.png



R5FWbzm.jpg





Download.png



Hidden content
You need to react to this post in order to see this content.

 
Poslednja izmena:
MODERATOR
Učlanjen(a)
10.10.2009
Poruka
13.314
Zona Zamfirova 2 (2017) 1080p WEBrip DD5.1 x264 by Wolf
(MKV) HQ

oGcP5vg.jpg


Kod:
 https://www.imdb.com/title/tt3429340/

General
Unique ID : 31230872022980991118845157934134308699 (0x177ED8DF9926A17E8AC4793004A5AF5B)
Complete name : Zona Zamfirova 2 (2017) 1080p WEBrip DD5.1 x264 by Wolf.mkv
Format : Matroska
Format version : Version 4
File size : 1.18 GiB
Duration : 1 h 31 min
Overall bit rate : 1 857 kb/s
Encoded date : UTC 2019-03-31 17:27:58
Writing application : mkvmerge v32.0.0 ('Astral Progressions') 64-bit
Writing library : libebml v1.3.7 + libmatroska v1.5.0 / Lavf58.20.100

Video
ID : 1
Format : AVC
Format/Info : Advanced Video Codec
Format profile : [email protected]
Format settings : CABAC / 8 Ref Frames
Format settings, CABAC : Yes
Format settings, ReFrames : 8 frames
Codec ID : V_MPEG4/ISO/AVC
Duration : 1 h 31 min
Bit rate : 1 600 kb/s
Width : 1 918 pixels
Height : 804 pixels
Display aspect ratio : 2.40:1
Frame rate mode : Constant
Frame rate : 30.000 FPS
Color space : YUV
Chroma subsampling : 4:2:0
Bit depth : 8 bits
Scan type : Progressive
Bits/(Pixel*Frame) : 0.035
Stream size : 1.02 GiB (86%)
Title : Zona Zamfirova 2 (2017)
Writing library : x264 core 157 r2935 545de2f
Encoding settings : cabac=1 / ref=8 / deblock=1:-1:-1 / analyse=0x3:0x133 / me=umh / subme=9 / psy=1 / psy_rd=1.00:0.15 / mixed_ref=1 / me_range=16 / chroma_me=1 / trellis=2 / 8x8dct=1 / cqm=0 / deadzone=21,11 / fast_pskip=1 / chroma_qp_offset=-3 / threads=6 / lookahead_threads=1 / sliced_threads=0 / nr=0 / decimate=1 / interlaced=0 / bluray_compat=0 / constrained_intra=0 / bframes=3 / b_pyramid=2 / b_adapt=2 / b_bias=0 / direct=3 / weightb=1 / open_gop=0 / weightp=2 / keyint=300 / keyint_min=30 / scenecut=40 / intra_refresh=0 / rc_lookahead=60 / rc=2pass / mbtree=1 / bitrate=1600 / ratetol=1.0 / qcomp=0.60 / qpmin=0 / qpmax=69 / qpstep=4 / cplxblur=20.0 / qblur=0.5 / vbv_maxrate=300000 / vbv_bufsize=300000 / nal_hrd=none / filler=0 / ip_ratio=1.40 / aq=1:1.00
Language : Serbian
Default : Yes
Forced : No
Color range : Limited
Color primaries : BT.709
Transfer characteristics : BT.709
Matrix coefficients : BT.709

Audio
ID : 2
Format : E-AC-3
Format/Info : Enhanced AC-3
Commercial name : Dolby Digital Plus
Codec ID : A_EAC3
Duration : 1 h 31 min
Bit rate mode : Constant
Bit rate : 256 kb/s
Channel(s) : 6 channels
Channel layout : L R C LFE Ls Rs
Sampling rate : 48.0 kHz
Frame rate : 31.250 FPS (1536 SPF)
Compression mode : Lossy
Stream size : 167 MiB (14%)
Title : Zona Zamfirova 2 (2017)
Language : Serbian
Service kind : Complete Main
Default : Yes
Forced : No

epYscVA.png

Hidden content
You need to react to this post in order to see this content.
QM8Yoel.jpg

nfAuS4o.jpg
 
Top