Šta je novo?
Član
Učlanjen(a)
09.05.2011
Poruka
7.549
=
ZombeX (2013) 720p BluRay x264 EPHEMERiD
File Size: 2.16 GiB

=

zombex.jpg



General
Complete name : epd-zombex.720p.mkv
Format : Matroska
Format version : Version 2
File size : 2.16 GiB
Duration : 1h 20mn
Overall bit rate : 3 850 Kbps
Encoded date : UTC 2013-12-01 05:54:41
Writing application : mkvmerge v5.8.0 ('No Sleep / Pillow') built on Sep 2 2012 15:37:04
Writing library : libebml v1.2.3 + libmatroska v1.3.0

Video
ID : 1
Format : AVC
Format/Info : Advanced Video Codec
Format profile : High@L4.1
Format settings, CABAC : Yes
Format settings, ReFrames : 5 frames
Codec ID : V_MPEG4/ISO/AVC
Duration : 1h 20mn
Bit rate : 2 265 Kbps
Width : 1 280 pixels
Height : 536 pixels
Display aspect ratio : 2.40:1
Frame rate mode : Constant
Frame rate : 23.976 fps
Color space : YUV
Chroma subsampling : 4:2:0
Bit depth : 8 bits
Scan type : Progressive
Bits/(Pixel*Frame) : 0.138
Stream size : 1.27 GiB (59%)
Title : ZombeX - Walking of the Dead (USA 2013)
Writing library : x264 core 140 r2377 1ca7bb9
Language : English
Default : Yes
Forced : No

Audio
ID : 2
Format : DTS
Format/Info : Digital Theater Systems
Mode : 16
Format settings, Endianness : Big
Codec ID : A_DTS
Duration : 1h 20mn
Bit rate mode : Constant
Bit rate : 1 509 Kbps
Channel count : 6 channels
Channel positions : Front: L C R, Side: L R, LFE
Sampling rate : 48.0 KHz
Bit depth : 24 bits
Compression mode : Lossy
Stream size : 867 MiB (39%)
Title : DTS
Language : English
Default : Yes
Forced : No

PLOT: ZOMBEX tells the story of a post-Katrina New Orleans as it deals with a new disaster, a zombie apocalypse. NOLA residents are no longer experiencing the depression and post-traumatic stress..

Kod:
http://www.imdb.com/title/tt1916763/


zombix.png



DOWNLOAD:
Kod:
http://uploaded.net/file/9gwteacl/epd-zombex.720p.part1.rar
http://uploaded.net/file/oy89k773/epd-zombex.720p.part2.rar
http://uploaded.net/file/c61pbjcn/epd-zombex.720p.part3.rar
http://uploaded.net/file/1639zfoj/epd-zombex.720p.part4.rar

http://rapidgator.net/file/8e53591044e74cebed964afaa6d8d3b4/epd-zombex.720p.part1.rar.html
http://rapidgator.net/file/4c8c44d58101d846ce1c6750fa2b79a7/epd-zombex.720p.part2.rar.html
http://rapidgator.net/file/d137cd3a711445330702cd554281606a/epd-zombex.720p.part3.rar.html
http://rapidgator.net/file/e3f007d3b8f734acb3defe46ae9b2acc/epd-zombex.720p.part4.rar.html

http://ryushare.com/dd4ctupzr49e/epd-zombex.720p.part1.rar
http://ryushare.com/hwu71lhjlsr5/epd-zombex.720p.part2.rar
http://ryushare.com/hl3xg1u8r8of/epd-zombex.720p.part3.rar
http://ryushare.com/efba5gkz0c65/epd-zombex.720p.part4.rar

http://lumfile.com/93ywuo7oonzl/epd-zombex.720p.part1.rar.html
http://lumfile.com/ig41syoe3ym8/epd-zombex.720p.part2.rar.html
http://lumfile.com/3qiqpt9uio7e/epd-zombex.720p.part3.rar.html
http://lumfile.com/s4x5a6wcdb97/epd-zombex.720p.part4.rar.html

DOWNLOAD SINGL LINKS:
Kod:
http://uploaded.net/file/pzpcpe64/epd-zombex.720.SingL.rar
http://rapidgator.net/file/e3f96e4216cd7358a21a0a36cb2ef95a/epd-zombex.720.SingL.rar.html
http://ryushare.com/281bd4db62df/epd-zombex.720.SingL.rar
http://lumfile.com/dguog5eeuwxv/epd-zombex.720.SingL.rar.html

I HAVE BACKUP, DONT WORRY ABOUT DEAD LINKS, PLEASE SEND ME PM, AND I WILL REUP ANY LINK


tnx.jpg
 
Član
Učlanjen(a)
21.01.2013
Poruka
1.111
g1hy.jpg


ZombeX (2013) 720p BluRay x264 DTS HD-5 1 ExDKING-EXDT
Kod:
http://www.imdb.com/title/tt1916763/
Language : English
01:20:20 | 2402 kb/s | 1280?536 | 23.98 fps(r) (eng) | dts, 48000 Hz, 5:1 (eng)
Genre: Horror | Thriller
Size: 1.36GB

ZOMBEX tells the story of a post-Katrina New Orleans as it deals with a new disaster, a zombie apocalypse. NOLA residents are no longer experiencing the depression and post-traumatic stress due to the trauma of the hurricane




navz.gif


Download From Secureupload
Kod:
http://www.secureupload.eu/i054ybtdejxl/OI0lUo.ZombeX.2013.720p.BluRay.x264.DTS.HD.5.1.ExDKING.EXDT.part1.rar
http://www.secureupload.eu/ai01c8c1uc8n/OI0lUo.ZombeX.2013.720p.BluRay.x264.DTS.HD.5.1.ExDKING.EXDT.part2.rar

Download From Rapidgator
Kod:
http://rapidgator.net/file/b2eb30ea78c74127a23d4b7db6af389c/OI0lUo.ZombeX.2013.720p.BluRay.x264.DTS.HD.5.1.ExDKING.EXDT.part2.rar.html
http://rapidgator.net/file/027dbfc47afa25872d3e355ecccab5ec/OI0lUo.ZombeX.2013.720p.BluRay.x264.DTS.HD.5.1.ExDKING.EXDT.part1.rar.html

Download From Uploaded
Kod:
http://uploaded.net/file/nudzu6c8/OI0lUo.ZombeX.2013.720p.BluRay.x264.DTS.HD.5.1.ExDKING.EXDT.part1.rar
http://uploaded.net/file/2z10cbh2/OI0lUo.ZombeX.2013.720p.BluRay.x264.DTS.HD.5.1.ExDKING.EXDT.part2.rar

(All links are interchangable. No password)
 
Član
Učlanjen(a)
07.07.2009
Poruka
786
Zombex (2013) 720p BluRay x264 YIFY


13859187561.jpg



:info:
IMDB


Kod:
[url=http://www.imdb.com/title/tt1916763/?ref_=fn_al_tt_1]Zombex (2013) - IMDb[/url]


:screen:


eqa9czwbh



:download:


Kod:
http://turbobit.net/1o4ph2hpvfd2.html
 
Top