Šta je novo?
Član
Učlanjen(a)
09.05.2011
Poruka
7.549
************************************************************
Zombeavers (2014) 1080p BluRay x264 CREEPSHOW
File Size: 7.65 GiB

************************************************************

zombie.jpg


INFO:
Kod:
General
Complete name                            : creep-zombeavers1080.mkv
Format                                   : Matroska
Format version                           : Version 4 / Version 2
File size                                : 7.65 GiB
Duration                                 : 1h 17mn
Overall bit rate                         : 14.1 Mbps
Encoded date                             : UTC 2014-10-29 17:58:41
Writing application                      : mkvmerge v7.3.0 ('Nouages') 64bit built on Oct 22 2014 18:53:34
Writing library                          : libebml v1.3.0 + libmatroska v1.4.1

Video
ID                                       : 1
Format                                   : AVC
Format/Info                              : Advanced Video Codec
Format profile                           : [email protected]
Format settings, CABAC                   : Yes
Format settings, ReFrames                : 4 frames
Codec ID                                 : V_MPEG4/ISO/AVC
Duration                                 : 1h 17mn
Bit rate                                 : 12.6 Mbps
Width                                    : 1 920 pixels
Height                                   : 1 080 pixels
Display aspect ratio                     : 16:9
Frame rate mode                          : Constant
Frame rate                               : 23.976 fps
Color space                              : YUV
Chroma subsampling                       : 4:2:0
Bit depth                                : 8 bits
Scan type                                : Progressive
Bits/(Pixel*Frame)                       : 0.253
Stream size                              : 6.68 GiB (87%)
Writing library                          : x264 core 142 r2479 dd79a61
Default                                  : Yes
Forced                                   : No

Audio
ID                                       : 2
Format                                   : DTS
Format/Info                              : Digital Theater Systems
Mode                                     : 16
Format settings, Endianness              : Big
Codec ID                                 : A_DTS
Duration                                 : 1h 17mn
Bit rate mode                            : Constant
Bit rate                                 : 1 509 Kbps
Channel(s)                               : 6 channels
Channel positions                        : Front: L C R, Side: L R, LFE
Sampling rate                            : 48.0 KHz
Bit depth                                : 24 bits
Compression mode                         : Lossy
Stream size                              : 837 MiB (11%)
Language                                 : English
Default                                  : Yes
Forced                                   : No

iMDB:
Kod:
http://www.imdb.com/title/tt2784512/

zombe.jpg


Single Extraction | No Password | Interchangeable Links: | Working 100% |

Kod:
http://rapidgator.net/file/e050d7a17bf67deacabac1335a67c710/LzZ0mBE1080p.part1.rar.html
http://rapidgator.net/file/c2c5694c5e3f030673b805154212bff0/LzZ0mBE1080p.part2.rar.html
http://rapidgator.net/file/251fac66dfd1aa45c09f9a3bb80110bb/LzZ0mBE1080p.part3.rar.html
http://rapidgator.net/file/e9b2cb28a22a7f0e53f92cf899e8aeb6/LzZ0mBE1080p.part4.rar.html
http://rapidgator.net/file/9c03e8a426d7e9fb58b766a6466b69a5/LzZ0mBE1080p.part5.rar.html
http://rapidgator.net/file/54aa08a24b54352cee299ba33850eb82/LzZ0mBE1080p.part6.rar.html
http://rapidgator.net/file/2156fd90e12cb1b2221dc5050594dd07/LzZ0mBE1080p.part7.rar.html
http://rapidgator.net/file/17fdefad5dd70586e99f79c39e04dc10/LzZ0mBE1080p.part8.rar.html

http://uploaded.net/file/myfheznx/LzZ0mBE1080p.part1.rar
http://uploaded.net/file/7wyebbnd/LzZ0mBE1080p.part2.rar
http://uploaded.net/file/pm6wvqga/LzZ0mBE1080p.part3.rar
http://uploaded.net/file/wh0cqc57/LzZ0mBE1080p.part4.rar
http://uploaded.net/file/grey4hq9/LzZ0mBE1080p.part5.rar
http://uploaded.net/file/3n0mbcpw/LzZ0mBE1080p.part6.rar
http://uploaded.net/file/qqkwhlsh/LzZ0mBE1080p.part7.rar
http://uploaded.net/file/6nhr8t8n/LzZ0mBE1080p.part8.rar

http://k2s.cc/file/c08695f947588/LzZ0mBE1080p.part1.rar
http://k2s.cc/file/8469f1249a680/LzZ0mBE1080p.part2.rar
http://k2s.cc/file/e5d15f4d7867b/LzZ0mBE1080p.part3.rar
http://k2s.cc/file/f48efae54badf/LzZ0mBE1080p.part4.rar
http://k2s.cc/file/3130bb8803144/LzZ0mBE1080p.part5.rar
http://k2s.cc/file/cfdd8d39f32bb/LzZ0mBE1080p.part6.rar
http://k2s.cc/file/41ad0a879800d/LzZ0mBE1080p.part7.rar
http://k2s.cc/file/5e455217370cd/LzZ0mBE1080p.part8.rar


:!: PLEASE SEE BEFORE DOWNLOADING

:arrow: Backups Ready. Reply Here When links Dead, I will re-up A.S.A.P
:arrow: Links Are Interchangeable
:arrow: I used to upload on different 4 file host for you
:arrow: No compromise about quality which u get here

DON'T FORGET TO SAY THANKS IF YOU LIKE MY POST !
 
Član
Učlanjen(a)
07.07.2009
Poruka
787
Zombeavers (2014) 720p BluRay x264 YIFY

Zombeavers-Movie.jpg


:info:
IMDB

Kod:
http://www.imdb.com/title/tt2784512/?ref_=fn_al_tt_1

:screen:

screenshot_137.png


:download:

Kod:
http://turbobit.net/vdhev1v6tme0.html

prevod

Kod:
http://titlovi.com/downloads/default.ashx?type=1&mediaid=194057
 
Top