Šta je novo?
Član
Učlanjen(a)
09.05.2011
Poruka
7.549
=
Zodiac (2007) Directors Cut 720p BluRay x264-DON [PublicHD]
File Size: 6.54 GiB

=

zodiac.jpg



General
Complete name : Zodiac.2007.Director's.Cut.720p.BluRay.x264-DON [PublicHD].mkv
Format : Matroska
Format version : Version 1
File size : 6.54 GiB
Duration : 2h 42mn
Overall bit rate mode : Variable
Overall bit rate : 5 759 Kbps
Movie name : Zodiac (2007) DC 720p
Encoded date : UTC 2009-01-24 13:20:11
Writing application : mkvmerge v2.4.1 ('Use Me') built on Dec 5 2008 18:30:05
Writing library : libebml v0.7.7 + libmatroska v0.8.1

Video
ID : 1
Format : AVC
Format/Info : Advanced Video Codec
Format profile : [email protected]
Format settings, CABAC : Yes
Format settings, ReFrames : 16 frames
Codec ID : V_MPEG4/ISO/AVC
Duration : 2h 42mn
Bit rate : 4 100 Kbps
Width : 1 280 pixels
Height : 532 pixels
Display aspect ratio : 2.40:1
Original display aspect ratio : 2.40:1
Frame rate mode : Constant
Frame rate : 23.976 fps
Color space : YUV
Chroma subsampling : 4:2:0
Bit depth : 8 bits
Scan type : Progressive
Bits/(Pixel*Frame) : 0.251
Stream size : 4.51 GiB (69%)
Writing library : x264 core 65 r1074 9d6cc8e
Language : English
Default : Yes
Forced : No

Audio #1
ID : 2
Format : DTS
Format/Info : Digital Theater Systems
Mode : 16
Format settings, Endianness : Big
Codec ID : A_DTS
Duration : 2h 42mn
Bit rate mode : Constant
Bit rate : 1 510 Kbps
Channel(s) : 6 channels
Channel positions : Front: L C R, Side: L R, LFE
Sampling rate : 48.0 KHz
Bit depth : 24 bits
Compression mode : Lossy
Stream size : 1.71 GiB (26%)
Language : English
Default : Yes
Forced : No


Kod:
http://www.imdb.com/title/tt0443706/

zo1.png


zo2.png


zo3.png



DOWNLOAD:
Kod:
http://netload.in/dateigdmh2caGER/Zodiac.2007.Directors.Cut.720p.PublicHD.part1.rar.htm
http://netload.in/datei77ZIemWH06/Zodiac.2007.Directors.Cut.720p.PublicHD.part2.rar.htm
http://netload.in/dateioHlthXT0Yo/Zodiac.2007.Directors.Cut.720p.PublicHD.part3.rar.htm
http://netload.in/datei8oW6ZpogaT/Zodiac.2007.Directors.Cut.720p.PublicHD.part4.rar.htm
http://netload.in/dateiMVkzGFzAr1/Zodiac.2007.Directors.Cut.720p.PublicHD.part5.rar.htm
http://netload.in/datei8Nb7b8p4xh/Zodiac.2007.Directors.Cut.720p.PublicHD.part6.rar.htm
http://netload.in/dateiGkexMFrM4f/Zodiac.2007.Directors.Cut.720p.PublicHD.part7.rar.htm


http://lumfile.com/mhou3tbmnkfj/Zodiac.2007.Director's.Cut.720p.PublicHD.part1.rar.html
http://lumfile.com/xq905kdjbo1i/Zodiac.2007.Director's.Cut.720p.PublicHD.part2.rar.html
http://lumfile.com/mx2bunv6i5tc/Zodiac.2007.Director's.Cut.720p.PublicHD.part3.rar.html
http://lumfile.com/w7go9ljrzyr9/Zodiac.2007.Director's.Cut.720p.PublicHD.part4.rar.html
http://lumfile.com/l3gyf5c4e1s1/Zodiac.2007.Director's.Cut.720p.PublicHD.part5.rar.html
http://lumfile.com/b1wtfpu42ijh/Zodiac.2007.Director's.Cut.720p.PublicHD.part6.rar.html
http://lumfile.com/yrclv9m3oi68/Zodiac.2007.Director's.Cut.720p.PublicHD.part7.rar.html
 
Poslednja izmena od urednika:
Top