Šta je novo?

Zivot je truba aka Life Is a Trumpet (2015)

VIP
Učlanjen(a)
30.10.2010
Poruka
1.103
Život Je Truba (2015) DVDRip x264 - Perikle

fg4IYgQ.jpg


Kod:
http://www.imdb.com/title/tt2936938/

Država: Hrvatska / Srbija
Trajanje: 92'
Režija: Antonio Nuić
Scenario: Antonio Nuić
Uloge: Goran Navojec, Bojan Navojec, Bogdan Diklić

SINOPSIS
Porodična okupljanja sjajna su prilika za rešavanje starih svađa i započinjanje novih. Dva su velika porodična okupljanja prikazana u filmu Život je truba- јedno je svadba, a drugo božićna večera. Mladoženja, glavni junak filma, opušteni je džez trubač koji pokušava do pomiri oca mesara, brata kockara i majku, računovođu u penziji. Nesebičnu pomoć pružaju mu mlada supruga i njeni neobični roditelji.

feC6OGTg.jpg



Download
Hidden content
You need to react to this post in order to see this content.
 
Poslednja izmena:
MODERATOR
Učlanjen(a)
10.10.2009
Poruka
13.314
Zivot je truba (2015) 1080p WEBrip DD5.1 x264 by Wolf
(MKV)

HN7SUp5.jpg


Kod:
 https://www.imdb.com/title/tt2936938/

General
Unique ID : 267773325925954260744926791336815757021 (0xC97344448B385F35E9F3F5C592F006DD)
Complete name : Zivot je truba (2015) 1080p WEBrip DD5.1 x264 by Wolf.mkv
Format : Matroska
Format version : Version 4
File size : 1.11 GiB
Duration : 1 h 32 min
Overall bit rate : 1 716 kb/s
Encoded date : UTC 2019-05-14 18:51:22
Writing application : mkvmerge v33.1.0 ('Primrose') 64-bit
Writing library : libebml v1.3.7 + libmatroska v1.5.0

Video
ID : 1
Format : AVC
Format/Info : Advanced Video Codec
Format profile : [email protected]
Format settings : CABAC / 4 Ref Frames
Format settings, CABAC : Yes
Format settings, ReFrames : 4 frames
Codec ID : V_MPEG4/ISO/AVC
Duration : 1 h 32 min
Bit rate : 1 460 kb/s
Width : 1 920 pixels
Height : 1 080 pixels
Display aspect ratio : 16:9
Frame rate mode : Constant
Frame rate : 25.000 FPS
Color space : YUV
Chroma subsampling : 4:2:0
Bit depth : 8 bits
Scan type : Progressive
Bits/(Pixel*Frame) : 0.028
Stream size : 963 MiB (85%)
Title : Zivot je truba (2015)
Writing library : x264 core 148 r2638 7599210
Encoding settings : cabac=1 / ref=3 / deblock=1:0:0 / analyse=0x3:0x113 / me=hex / subme=7 / psy=1 / psy_rd=1.00:0.00 / mixed_ref=1 / me_range=16 / chroma_me=1 / trellis=1 / 8x8dct=1 / cqm=0 / deadzone=21,11 / fast_pskip=1 / chroma_qp_offset=-2 / threads=3 / lookahead_threads=1 / sliced_threads=0 / nr=0 / decimate=1 / interlaced=0 / bluray_compat=0 / constrained_intra=0 / bframes=3 / b_pyramid=2 / b_adapt=1 / b_bias=0 / direct=1 / weightb=1 / open_gop=0 / weightp=2 / keyint=250 / keyint_min=25 / scenecut=40 / intra_refresh=0 / rc_lookahead=40 / rc=2pass / mbtree=1 / bitrate=1460 / ratetol=1.0 / qcomp=0.60 / qpmin=0 / qpmax=69 / qpstep=4 / cplxblur=20.0 / qblur=0.5 / ip_ratio=1.40 / aq=1:1.00
Language : Croatian
Default : Yes
Forced : No

Audio
ID : 2
Format : E-AC-3
Format/Info : Enhanced AC-3
Commercial name : Dolby Digital Plus
Codec ID : A_EAC3
Duration : 1 h 32 min
Bit rate mode : Constant
Bit rate : 256 kb/s
Channel(s) : 6 channels
Channel layout : L R C LFE Ls Rs
Sampling rate : 48.0 kHz
Frame rate : 31.250 FPS (1536 SPF)
Compression mode : Lossy
Stream size : 169 MiB (15%)
Title : Zivot je truba (2015)
Language : Croatian
Service kind : Complete Main
Default : Yes
Forced : No

epYscVA.png

Hidden content
You need to react to this post in order to see this content.
EuhqP2n.jpg

yJf5HFq.jpg
 
Poslednja izmena:
Top