Šta je novo?

Zivot je cudo aka Life Is a Miracle (2004)

  • Začetnik teme Zoran_
  • Datum pokretanja
Zoran_

Zoran_

Učlanjen(a)
26.01.2014
Poruka
3.881
Zivot je cudo (2004)






Kod:
http://www.imdb.com/title/tt0322420/
Inzenjer Luka iz Beograda dolazi 1992. godine u planinsko selo u Bosni sa zenom Jadrankom, operskom pevacicom i sinom Milosem. Luka se sprema da izgradi prugu koja ce citav kraj pretvoriti u raj za turiste. Zanesen svojom idejom i zaslepljen urodjenim optimizmom, Luka ostaje gluv za pretecu ratnu tutnjavu koja se priblizava. Kada pocne rat, Lukin zivot se okrece naglavacke. Jadranka bezi sa muzicarem, dok sina Milosa pozivaju na front. Veciti optimista, Luka ocekuje povratak svoje porodice... ali Jadranka se ne vraca, a sina mu zarobljavaju. Srpska vojska dodeljuje Luki na cuvanje muslimanskog taoca - devojku Sabahu. Ubrzo Luka se zaljubljuje u Sabahu, ali ona treba da bude razmenjena za srpskog zarobljenika - njegovog sina Milosa...







Zivot je cudo (2004) DVDRip.avi




Hidden content
You need to reply to this thread or react to this post in order to see this content.
 
Wolf 13

Wolf 13

MODERATOR
Učlanjen(a)
10.10.2009
Poruka
13.278
Zivot je cudo (2004) DVDrip AC3 5.1 x264 by Wolf
(MKV) HQ



Kod:
  https://www.imdb.com/title/tt0322420/
General
Unique ID : 2175353995775225774918648864558910380 (0x1A2F53B8E790712F8DB2A6F8F518BAC)
Complete name : Zivot je cudo (2004) DVDrip AC3 5.1 x264 by Wolf.mkv
Format : Matroska
Format version : Version 4
File size : 1.82 GiB
Duration : 2 h 28 min
Overall bit rate : 1 758 kb/s
Encoded date : UTC 2018-12-26 16:50:11 / UTC 2018-12-26T12:16:43Z
Writing application : mkvmerge v29.0.0 ('Like It Or Not') 64-bit
Writing library : libebml v1.3.6 + libmatroska v1.4.9 / Lavf57.7.2

Video
ID : 1
Format : AVC
Format/Info : Advanced Video Codec
Format profile : [email protected]
Format settings : CABAC / 8 Ref Frames
Format settings, CABAC : Yes
Format settings, ReFrames : 8 frames
Codec ID : V_MPEG4/ISO/AVC
Duration : 2 h 28 min
Bit rate : 1 500 kb/s
Width : 720 pixels
Height : 572 pixels
Display aspect ratio : 16:9
Frame rate mode : Constant
Frame rate : 25.000 FPS
Color space : YUV
Chroma subsampling : 4:2:0
Bit depth : 8 bits
Scan type : Progressive
Bits/(Pixel*Frame) : 0.146
Stream size : 1.52 GiB (83%)
Title : Zivot je cudo (2004)
Writing library : x264 core 155 r2901 7d0ff22
Encoding settings : cabac=1 / ref=8 / deblock=1:-1:-1 / analyse=0x3:0x133 / me=umh / subme=9 / psy=1 / psy_rd=1.00:0.15 / mixed_ref=1 / me_range=16 / chroma_me=1 / trellis=2 / 8x8dct=1 / cqm=0 / deadzone=21,11 / fast_pskip=1 / chroma_qp_offset=-3 / threads=6 / lookahead_threads=1 / sliced_threads=0 / nr=0 / decimate=1 / interlaced=0 / bluray_compat=0 / constrained_intra=0 / bframes=3 / b_pyramid=2 / b_adapt=2 / b_bias=0 / direct=3 / weightb=1 / open_gop=0 / weightp=2 / keyint=250 / keyint_min=25 / scenecut=40 / intra_refresh=0 / rc_lookahead=60 / rc=2pass / mbtree=1 / bitrate=1500 / ratetol=1.0 / qcomp=0.60 / qpmin=0 / qpmax=69 / qpstep=4 / cplxblur=20.0 / qblur=0.5 / vbv_maxrate=300000 / vbv_bufsize=300000 / nal_hrd=none / filler=0 / ip_ratio=1.40 / aq=1:1.00
Language : Serbian
Default : Yes
Forced : No
Color range : Limited
Color primaries : BT.601 PAL
Transfer characteristics : BT.709
Matrix coefficients : BT.601
Statistics Tags Issue : mkvmerge v29.0.0 ('Like It Or Not') 64-bit 2018-12-26 16:50:11 / mkvmerge v29.0.0 ('Like It Or Not') 64-bit 2018-12-26 16:50:11 / UTC 2018-12-26T12:16:43Z
FromStats_BitRate : 1500040
FromStats_Duration : 02:28:03.680000000
FromStats_FrameCount : 222092
FromStats_StreamSize : 1665735087

Audio
ID : 2
Format : AC-3
Format/Info : Audio Coding 3
Commercial name : Dolby Digital
Codec ID : A_AC3
Duration : 2 h 28 min
Bit rate mode : Constant
Bit rate : 256 kb/s
Channel(s) : 6 channels
Channel layout : L R C LFE Ls Rs
Sampling rate : 48.0 kHz
Frame rate : 31.250 FPS (1536 SPF)
Bit depth : 16 bits
Compression mode : Lossy
Delay relative to video : -80 ms
Stream size : 271 MiB (15%)
Title : Surround
Service kind : Complete Main
Default : Yes
Forced : No
Statistics Tags Issue : mkvmerge v29.0.0 ('Like It Or Not') 64-bit 2018-12-26 16:50:11 / mkvmerge v29.0.0 ('Like It Or Not') 64-bit 2018-12-26 16:50:11 / UTC 2018-12-26T12:16:43Z
FromStats_BitRate : 256000
FromStats_Duration : 02:28:03.744000000
FromStats_FrameCount : 277617
FromStats_StreamSize : 284279808

Text
ID : 3
Format : UTF-8
Codec ID : S_TEXT/UTF8
Codec ID/Info : UTF-8 Plain Text
Title : Zivot je cudo (2004)
Language : Serbian
Default : Yes
Forced : No
Statistics Tags Issue : mkvmerge v29.0.0 ('Like It Or Not') 64-bit 2018-12-26 16:50:11 / mkvmerge v29.0.0 ('Like It Or Not') 64-bit 2018-12-26 16:50:11 / UTC 2018-12-26T12:16:43Z
FromStats_BitRate : 2
FromStats_Duration : 02:16:27.196000000
FromStats_FrameCount : 75
FromStats_StreamSize : 2373

Hidden content
You need to react to this post in order to see this content.

 
Poslednja izmena:
Top