Šta je novo?
Član
Učlanjen(a)
09.05.2011
Poruka
7.549
==
Zero Dark Thirty (2012) 720p BluRay x264 Felony
File Size: 6.56 GiB
==


zero.jpg




General
Complete name : R:\f-zerodarkthirty.720p.mkv
Format : Matroska
Format version : Version 2
File size : 6.56 GiB
Duration : 2h 36mn
Overall bit rate : 5 983 Kbps
Writing application : mkvmerge v4.1.1 ('Bouncin' Back') built on Jul 3 2010 22:54:08
Writing library : libebml v1.0.0 + libmatroska v1.0

Video
ID : 1
Format : AVC
Format/Info : Advanced Video Codec
Format profile : [email protected]
Format settings, CABAC : Yes
Format settings, ReFrames : 5 frames
Codec ID : V_MPEG4/ISO/AVC
Duration : 2h 36mn
Bit rate : 4 471 Kbps
Width : 1 280 pixels
Height : 688 pixels
Display aspect ratio : 1.85:1
Frame rate mode : Constant
Frame rate : 23.976 fps
Color space : YUV
Chroma subsampling : 4:2:0
Bit depth : 8 bits
Scan type : Progressive
Bits/(Pixel*Frame) : 0.212
Stream size : 4.78 GiB (73%)
Writing library : x264 core 130 r2273 b3065e6
Language : English
Default : Yes
Forced : No

Audio
ID : 2
Format : DTS
Format/Info : Digital Theater Systems
Mode : 16
Format settings, Endianness : Big
Codec ID : A_DTS
Duration : 2h 36mn
Bit rate mode : Constant
Bit rate : 1 509 Kbps
Channel(s) : 6 channels
Channel positions : Front: L C R, Side: L R, LFE
Sampling rate : 48.0 KHz
Bit depth : 24 bits
Compression mode : Lossy
Stream size : 1.65 GiB (25%)
Language : English
Default : Yes
Forced : No

Kod:
http://www.imdb.com/title/tt1790885/


zero.jpg



DOWNLOAD:
Kod:
http://www.netload.in/dateinsTXcIPu74/f-zerodarkthirty.720p.part1.rar.htm
http://www.netload.in/dateigWYMefMAMw/f-zerodarkthirty.720p.part2.rar.htm
http://www.netload.in/dateiuyNf6SIQlP/f-zerodarkthirty.720p.part3.rar.htm
http://www.netload.in/dateiZ5lcfMU3JE/f-zerodarkthirty.720p.part4.rar.htm
http://www.netload.in/dateiC7LhoRRFUX/f-zerodarkthirty.720p.part5.rar.htm
http://www.netload.in/dateiNR9zT1gwml/f-zerodarkthirty.720p.part6.rar.htm
http://www.netload.in/datei2Iwd4Jqtwk/f-zerodarkthirty.720p.part7.rar.htm
 
Poslednja izmena od urednika:
Top