Šta je novo?
Član
Učlanjen(a)
09.05.2011
Poruka
7.549
=
Zero Dark Dirty (2013) 720p BluRay x264-SONiDO
File Size: 4,36 GiB

=

zero.jpg



General
Complete name : Zero.Dark.Dirty.2013.720p.BluRay.x264-SONiDO\zdd_720_son.mkv
Format : Matroska
Format version : Version 2
File size : 4.36 GiB
Duration : 1h 29mn
Overall bit rate : 6 983 Kbps
Encoded date : UTC 2013-05-09 17:50:02
Writing application : mkvmerge v6.1.0 ('Old Devil') built on Mar 2 2013 14:32:37
Writing library : libebml v1.3.0 + libmatroska v1.4.0

Video
ID : 1
Format : AVC
Format/Info : Advanced Video Codec
Format profile : [email protected]
Format settings, CABAC : Yes
Format settings, ReFrames : 5 frames
Codec ID : V_MPEG4/ISO/AVC
Duration : 1h 29mn
Bit rate : 5 475 Kbps
Width : 1 280 pixels
Height : 640 pixels
Display aspect ratio : 2.000
Frame rate mode : Constant
Frame rate : 23.976 fps
Color space : YUV
Chroma subsampling : 4:2:0
Bit depth : 8 bits
Scan type : Progressive
Bits/(Pixel*Frame) : 0.279
Stream size : 3.33 GiB (76%)
Writing library : x264 core 132 r2309 3b1f1f7
Language : English
Default : Yes
Forced : No

Audio
ID : 2
Format : DTS
Format/Info : Digital Theater Systems
Mode : 16
Format settings, Endianness : Big
Codec ID : A_DTS
Duration : 1h 29mn
Bit rate mode : Constant
Bit rate : 1 509 Kbps
Channel(s) : 6 channels
Channel positions : Front: L C R, Side: L R, LFE
Sampling rate : 48.0 KHz
Bit depth : 24 bits
Compression mode : Lossy
Stream size : 966 MiB (22%)
Language : English
Default : Yes
Forced : No

Kod:
http://www.imdb.com/title/tt1288367/

vlcsnap-2013-05-11-06h54.png


vlcsnap-2013-05-11-06h55.png


vlcsnap-2013-05-11-06h55.png



DOWNLOAD:
Kod:
http://netload.in/dateiWlncH7rBh4/ZeRoDaRk.720p.part1.rar.htm
http://netload.in/dateiHXrbDs2U2J/ZeRoDaRk.720p.part2.rar.htm
http://netload.in/datei28M568Br7q/ZeRoDaRk.720p.part3.rar.htm
http://netload.in/dateiosYP6TsG2a/ZeRoDaRk.720p.part4.rar.htm
http://netload.in/dateiIylWKKlj7n/ZeRoDaRk.720p.part5.rar.htm
 
Poslednja izmena od urednika:
Top