Šta je novo?

Your friend the rat(2007)

Učlanjen(a)
10.08.2009
Poruka
2.588
your2bfriend2bthe2brat2.jpg


:info:


Crtani + prevod

General
Complete name: Your.Friend.the.Rat.2007.BRRip.mkv
Format : Matroska
Format version : Version 2
File size: 466 MiB
Duration : 11mn 16s
Overall bit rate : 5 773 Kbps
Encoded date : UTC 2009-09-14 22:40:30

Video
ID : 1
Format : AVC
Format/Info: Advanced Video Codec
Format profile : [email protected]
Format settings, CABAC : Yes
Format settings, ReFrames: 4 frames
Codec ID : V_MPEG4/ISO/AVC
Duration : 11mn 16s
Bit rate : 5 133 Kbps
Width: 1 280 pixels
Height : 720 pixels
Display aspect ratio : 16:9
Frame rate : 23.976 fps
Color space: YUV
Chroma subsampling : 4:2:0
Bit depth: 8 bits
Scan type: Progressive
Bits/(Pixel*Frame) : 0.232
Stream size: 405 MiB (87%)
Title: ViDEO
Writing library: x264 core 65 r999M cc51047
Language : English
Default: Yes
Forced : No

Audio
ID : 2
Format : AC-3
Format/Info: Audio Coding 3
Mode extension : CM (complete main)
Codec ID : A_AC3
Duration : 11mn 16s
Bit rate mode: Constant
Bit rate : 640 Kbps
Channel(s) : 6 channels
Channel positions: Front: L C R, Side: L R, LFE
Sampling rate: 48.0 KHz
Bit depth: 16 bits
Compression mode : Lossy
Stream size: 51.6 MiB (11%)
Title: AC3 5.1 640 Kbps
Language : English
Default: No
Forced : No

:download:

Kod:
https://rapidshare.com/files/3614173139/Tvoj_prijatelj_pacov.part1.rar
https://rapidshare.com/files/4006640760/Tvoj_prijatelj_pacov.part2.rar
https://rapidshare.com/files/1210885201/Tvoj_prijatelj_pacov.part3.rar
 
Top