Šta je novo?

X-Men Days Of Future Past (2014)

Član
Učlanjen(a)
02.03.2013
Poruka
3.108
X-Men Days of Future Past 2014 DVDRip XviD AC3-P2P

91r_Md_Lj_PQL_SL1500.jpg


Kod:
Release Group: P2P
Release Name: X-Men.Days.of.Future.Past.2014.DVDRip.XviD.AC3-P2P
Release Date: September 04, 2014
Filename: X-Men.Days.of.Future.Past.2014.DVDRip.XviD.AC3-P2P
Source: DVDR
Size: 1.21 GB
Genre: Action | Adventure | Sci-Fi
Video: XviD | 720×304 | 920 Kbps
Audio: English | AC3 | 384 Kbps
Subs: N/A
IMDB Rating: 8.3/10
RT Critics: 7.6/10
Directed By: Bryan Singer
Starring: Patrick Stewart, Ian McKellen, Hugh Jackman

FHZvg.png


GTcw_W.png


jbmd.png



If U Like My Post Willing To Buy Premium For High Speed Resumable downloads Pls BuY Premium From This Links

Kod:
http://uploaded.net/file/4u80gx7z/214mendvdrip2145879.avi

http://rapidgator.net/file/bb2e6854d8c893ab207dbed32bf74c38/214mendvdrip2145879.avi.html

http://keep2s.cc/file/e46086a25ea42/214mendvdrip2145879.avi


 
Član
Učlanjen(a)
07.07.2009
Poruka
787
X Men Days of Future Past (2014) HDTV-DIAMOND

xmen-days-of-future-past.jpg


:info:
IMDB

Kod:
http://www.imdb.com/title/tt1877832/?ref_=fn_al_tt_1

:screen:

screenshot_10.png


:download:

Kod:
http://turbobit.net/6iilc8snjg02.html
 
Član
Učlanjen(a)
09.05.2011
Poruka
7.549
************************************************************
X-Men Days of Future Past (2014) 720p BluRay DTS x264 DNL
File Size: 6.50 GiB

************************************************************

xman.jpg


INFO:
Kod:
General
Complete name                            : G:\XD0FP2014720pDNL.mkv
Format                                   : Matroska
Format version                           : Version 4 / Version 2
File size                                : 6.50 GiB
Duration                                 : 2h 11mn
Overall bit rate mode                    : Variable
Overall bit rate                         : 7 067 Kbps
Movie name                               : XMen Days of Future Past 2014 720p BluRay DTS x264-DNL
Encoded date                             : UTC 2014-09-06 17:59:39
Writing application                      : mkvmerge v7.0.0 ('Where We Going') 32bit built on Jun  9 2014 15:08:34
Writing library                          : libebml v1.3.0 + libmatroska v1.4.1

Video
ID                                       : 1
Format                                   : AVC
Format/Info                              : Advanced Video Codec
Format profile                           : [email protected]
Format settings, CABAC                   : Yes
Format settings, ReFrames                : 11 frames
Codec ID                                 : V_MPEG4/ISO/AVC
Duration                                 : 2h 11mn
Bit rate mode                            : Variable
Bit rate                                 : 5 555 Kbps
Maximum bit rate                         : 25.0 Mbps
Width                                    : 1 280 pixels
Height                                   : 534 pixels
Display aspect ratio                     : 2.40:1
Frame rate mode                          : Constant
Frame rate                               : 23.976 fps
Color space                              : YUV
Chroma subsampling                       : 4:2:0
Bit depth                                : 8 bits
Scan type                                : Progressive
Bits/(Pixel*Frame)                       : 0.339
Stream size                              : 4.98 GiB (77%)
Writing library                          : x264 core 112 r1867 22bfd31
Default                                  : Yes
Forced                                   : No

Audio
ID                                       : 2
Format                                   : DTS
Format/Info                              : Digital Theater Systems
Mode                                     : 16
Format settings, Endianness              : Big
Codec ID                                 : A_DTS
Duration                                 : 2h 11mn
Bit rate mode                            : Constant
Bit rate                                 : 1 510 Kbps
Channel(s)                               : 6 channels
Channel positions                        : Front: L C R, Side: L R, LFE
Sampling rate                            : 48.0 KHz
Bit depth                                : 24 bits
Compression mode                         : Lossy
Stream size                              : 1.39 GiB (21%)
Language                                 : English
Default                                  : Yes
Forced                                   : No

iMDB:
Kod:
http://www.imdb.com/title/tt1877832/

xd0fp2014720pdnlpreview.png


Single Extraction | No Password | Interchangeable Links: | Working 100% |

Kod:
http://uploaded.net/file/z4q4cj2u/XD0FP2014720pDNL.part1.rar
http://uploaded.net/file/r5miigdy/XD0FP2014720pDNL.part2.rar
http://uploaded.net/file/6jp5sx92/XD0FP2014720pDNL.part3.rar
http://uploaded.net/file/pcnp1lod/XD0FP2014720pDNL.part4.rar
http://uploaded.net/file/s93879af/XD0FP2014720pDNL.part5.rar
http://uploaded.net/file/1wtq7ux1/XD0FP2014720pDNL.part6.rar
http://uploaded.net/file/ywfnzbmv/XD0FP2014720pDNL.part7.rar

http://rapidgator.net/file/79e107771d215a25e940f3c6885dc9e9/XD0FP2014720pDNL.part1.rar.html
http://rapidgator.net/file/5114453db421b7d39eb859e3142b3d69/XD0FP2014720pDNL.part2.rar.html
http://rapidgator.net/file/f33eee150021e26ea9ac52885817c0b4/XD0FP2014720pDNL.part3.rar.html
http://rapidgator.net/file/320b9e8c6b1e4c36f4042ca3873ec51e/XD0FP2014720pDNL.part4.rar.html
http://rapidgator.net/file/cd17410ca6f0dcbcb524d091e949afb3/XD0FP2014720pDNL.part5.rar.html
http://rapidgator.net/file/ecb774e002101f82f2a599195c004251/XD0FP2014720pDNL.part6.rar.html
http://rapidgator.net/file/e699af786b707405766a35b7842e8179/XD0FP2014720pDNL.part7.rar.html

https://www.oboom.com/EXK6UKM6/XD0FP2014720pDNL.part1.rar
https://www.oboom.com/GRO7LNLF/XD0FP2014720pDNL.part2.rar
https://www.oboom.com/TTI765KS/XD0FP2014720pDNL.part3.rar
https://www.oboom.com/87NGDE25/XD0FP2014720pDNL.part4.rar
https://www.oboom.com/YRNVKDZV/XD0FP2014720pDNL.part5.rar
https://www.oboom.com/X4BPFPCH/XD0FP2014720pDNL.part6.rar
https://www.oboom.com/TADDJ9NB/XD0FP2014720pDNL.part7.rar

http://xerver.co/0tnn6eay1bpw/XD0FP2014720pDNL.part1.rar
http://xerver.co/sz3468l65epx/XD0FP2014720pDNL.part2.rar
http://xerver.co/7hygh9g49nzz/XD0FP2014720pDNL.part3.rar
http://xerver.co/wn8cv01kxlya/XD0FP2014720pDNL.part4.rar
http://xerver.co/4yvrkexj0pe5/XD0FP2014720pDNL.part5.rar
http://xerver.co/iwdegdcewz08/XD0FP2014720pDNL.part6.rar
http://xerver.co/gg7oen58viop/XD0FP2014720pDNL.part7.rar

DOWNLOAD SINGLE LINKS:
Kod:

I HAVE BACKUP, DONT WORRY ABOUT DEAD LINKS, PLEASE SEND ME PM, AND I WILL REUP ANY LINK
 
Član
Učlanjen(a)
02.03.2013
Poruka
3.108
X-Men Days of Future Past 2014 720p BluRay DTS x264-DNL

91r_Md_Lj_PQL_SL1500.jpg




Kod:
    Format : Matroska
    Format version : Version 4 / Version 2
    File size: 6.50 GiB
    Duration : 2h 11mn
    Overall bit rate mode: Variable
    Overall bit rate : 7 067 Kbps
    Movie name : XMen Days of Future Past 2014
    720p BluRay DTS x264-DNL
    Encoded date : UTC 2014-09-06 17:59:39
    Writing application: mkvmerge v7.0.0 ('Where We
    Going') 32bit built on Jun9 2014 15:08:34
    Writing library: libebml v1.3.0 + libmatroska
    v1.4.1
     
     
    Video
    ID : 1
    Format : AVC
    Format/Info: Advanced Video Codec
    Format profile : [email protected]
    Format settings, CABAC : Yes
    Format settings, ReFrames: 11 frames
    Codec ID : V_MPEG4/ISO/AVC
    Duration : 2h 11mn
    Bit rate mode: Variable
    Bit rate : 5 555 Kbps
    Maximum bit rate : 25.0 Mbps
    Width: 1 280 pixels
    Height : 534 pixels
    Display aspect ratio : 2.40:1
    Frame rate mode: Constant
    Frame rate : 23.976 fps
    Color space: YUV
    Chroma subsampling : 4:2:0
    Bit depth: 8 bits
    Scan type: Progressive
    Bits/(Pixel*Frame) : 0.339
    Stream size: 4.98 GiB (77%)
    Default: Yes
    Forced : No
     
    Audio
    ID : 2
    Format : DTS
    Format/Info: Digital Theater Systems
    Mode : 16
    Format settings, Endianness: Big
    Codec ID : A_DTS
    Duration : 2h 11mn
    Bit rate mode: Constant
    Bit rate : 1 510 Kbps
    Channel count: 6 channels
    Channel positions: Front: L C R, Side: L R, LFE
    Sampling rate: 48.0 KHz
    Bit depth: 24 bits
    Compression mode : Lossy
    Stream size: 1.39 GiB (21%)
    Language : English
    Default: Yes
    Forced : No

2hzzeq.png


2jzbzd.png


24fjuz5.png


Support My Work By Buying Premium from my links which encourage me to post more Exclusive quality stuff

Kod:
http://xerver.co/3abq67dwkfyz/X-M3n_Days_of_Future_Past_2014_720p_BluRay_DTS_x264-DNL.mkv

Kod:
http://uploaded.net/file/2iexwt02/X-M3n%2520Days%2520of%2520Future%2520Past%25202014%2520720p%2520BluRay%2520DTS%2520x264-DNL.mkv.part2.rar
http://uploaded.net/file/6gj28icw/X-M3n%2520Days%2520of%2520Future%2520Past%25202014%2520720p%2520BluRay%2520DTS%2520x264-DNL.mkv.part4.rar
http://uploaded.net/file/bg2h6orv/X-M3n%2520Days%2520of%2520Future%2520Past%25202014%2520720p%2520BluRay%2520DTS%2520x264-DNL.mkv.part7.rar
http://uploaded.net/file/yktscmap/X-M3n%2520Days%2520of%2520Future%2520Past%25202014%2520720p%2520BluRay%2520DTS%2520x264-DNL.mkv.part6.rar
http://uploaded.net/file/z3n9ppqf/X-M3n%2520Days%2520of%2520Future%2520Past%25202014%2520720p%2520BluRay%2520DTS%2520x264-DNL.mkv.part5.rar
http://uploaded.net/file/dqochve1/X-M3n%2520Days%2520of%2520Future%2520Past%25202014%2520720p%2520BluRay%2520DTS%2520x264-DNL.mkv.part3.rar
http://uploaded.net/file/esri5du3/X-M3n%2520Days%2520of%2520Future%2520Past%25202014%2520720p%2520BluRay%2520DTS%2520x264-DNL.mkv.part1.rar

Kod:
http://rapidgator.net/file/6802b73c1c457a9e0ea01e007d8abefb/X-M3n_Days_of_Future_Past_2014_720p_BluRay_DTS_x264-DNL.mkv.part5.rar.html
http://rapidgator.net/file/ba9f27522008bf8fe7a320953b95e7a9/X-M3n_Days_of_Future_Past_2014_720p_BluRay_DTS_x264-DNL.mkv.part3.rar.html
http://rapidgator.net/file/25db510e8f0cab0e20bbab6d993152e2/X-M3n_Days_of_Future_Past_2014_720p_BluRay_DTS_x264-DNL.mkv.part4.rar.html
http://rapidgator.net/file/e0a1b7b546ba4c196deb388ef7c4cfff/X-M3n_Days_of_Future_Past_2014_720p_BluRay_DTS_x264-DNL.mkv.part1.rar.html
http://rapidgator.net/file/d68e60dcf417aba83f041c90b8eb97b7/X-M3n_Days_of_Future_Past_2014_720p_BluRay_DTS_x264-DNL.mkv.part6.rar.html
http://rapidgator.net/file/d30fab1d2cf2de3e4a5d1e4e48b4898c/X-M3n_Days_of_Future_Past_2014_720p_BluRay_DTS_x264-DNL.mkv.part7.rar.html
http://rapidgator.net/file/76eed9aa8b47c102bf2076a12990a1b0/X-M3n_Days_of_Future_Past_2014_720p_BluRay_DTS_x264-DNL.mkv.part2.rar.html

 
Član
Učlanjen(a)
07.07.2009
Poruka
787
X-Men: Days of Future Past (2014) 720p BluRay x264 YIFY

x_men_days_of_future_past_2014-wide.jpg


:info:
IMDB

Kod:
http://www.imdb.com/title/tt1877832/?ref_=fn_al_tt_1

:screen:

screenshot_14.png


:download:

Kod:
http://turbobit.net/w9pdmsavjfsq.html
 
Član
Učlanjen(a)
02.03.2013
Poruka
3.108
X-Men: Days of Future Past (2014) DVD9 Untouched [Aud:Eng-Port-thai & Spa/Sub Eng-Spa & Others]

2_117_png_original.png


Kod:
Title_ X-Men: Days of Future Past.DVD9
General Information:
Genre: Action | Adventure | Sci-Fi
Year: 2014
Link: http://www.imdb.com/title/tt1877832/
Ratings: 8,3/10 from 237.451 users   Metascore: 74/100
Reviews: 618 user | 434 critic | 43 from Metacritic.com 
Source: DVD9
Size 6,74 gb
Menus: Untouched
Extras: Untouched
Length: 131 min 
Video Information:
Video Type: NTSC
Aspect Ratio: 16:9
Audio Information:
Audio Format: Dolby Digital 5.1
Languages: English, Spanish, Português & Thai
Subtitles: English, Spanish, Português , Others

vlcsnap_2014_09_15_15h15m20s56_png_original.png


vlcsnap_2014_09_15_15h15m24s107_png_original.png


vlcsnap_2014_09_15_15h15m28s156_png_original.png


vlcsnap_2014_09_15_15h15m43s201_png_original.png


vlcsnap_2014_09_15_15h15m56s150_png_original.png


vlcsnap_2014_09_28_02h55m26s254_png_original.png


vlcsnap_2014_09_28_02h55m54s24_png_original.png


http://s22.postimg.org/6wv5qztfl/vlcsnap_2014_09_28_02h56m28s121_png_original.png[/img

[img]http://s22.postimg.org/7awhqldj5/vlcsnap_2014_09_28_02h57m19s114_png_original.png

Support My Work By Buying Premium from my links which encourage me to post more Exclusive quality stuff

Kod:
http://rapidgator.net/file/d0afea87d765092484bae5cd00d31efb/214587986XDD9M214.ISO.part7.rar.html
http://rapidgator.net/file/abe0a945e95e035e4ffd0d62477b3047/214587986XDD9M214.ISO.part6.rar.html
http://rapidgator.net/file/2ca0890d2e1a011c8156f165180df9b6/214587986XDD9M214.ISO.part5.rar.html
http://rapidgator.net/file/c3642cde0a9d2c163456cd623b0a7489/214587986XDD9M214.ISO.part8.rar.html
http://rapidgator.net/file/32924555ec2afba72ad48d0953550978/214587986XDD9M214.ISO.part4.rar.html
http://rapidgator.net/file/72e60a8c1997d2b3204046d13fbcb5b2/214587986XDD9M214.ISO.part3.rar.html
http://rapidgator.net/file/93ba8f756492f05ebe9d2f15b14cadc0/214587986XDD9M214.ISO.part2.rar.html
http://rapidgator.net/file/bae85b4005e672baa3765c972bc48696/214587986XDD9M214.ISO.part1.rar.html

Kod:
http://uploaded.net/file/k0uxuzid/214587986XDD9M214.ISO.part6.rar
http://uploaded.net/file/qjjf4dn6/214587986XDD9M214.ISO.part7.rar
http://uploaded.net/file/gbnzih32/214587986XDD9M214.ISO.part2.rar
http://uploaded.net/file/a70q0ipa/214587986XDD9M214.ISO.part3.rar
http://uploaded.net/file/3lrxt1hp/214587986XDD9M214.ISO.part1.rar
http://uploaded.net/file/xercn68q/214587986XDD9M214.ISO.part4.rar
http://uploaded.net/file/5fredcf9/214587986XDD9M214.ISO.part5.rar
http://uploaded.net/file/703e7scy/214587986XDD9M214.ISO.part8.rar

Kod:
https://www.oboom.com/N1KTXK00/214587986XDD9M214.ISO.part8.rar
https://www.oboom.com/T121YDCX/214587986XDD9M214.ISO.part5.rar
https://www.oboom.com/1NVWKFKI/214587986XDD9M214.ISO.part3.rar
https://www.oboom.com/RWCY55KL/214587986XDD9M214.ISO.part6.rar
https://www.oboom.com/CSPTA4G0/214587986XDD9M214.ISO.part7.rar
https://www.oboom.com/EHLAXRWW/214587986XDD9M214.ISO.part4.rar
https://www.oboom.com/GNXNMFXN/214587986XDD9M214.ISO.part1.rar
https://www.oboom.com/8F1KJ6EE/214587986XDD9M214.ISO.part2.rar

 
Član
Učlanjen(a)
02.03.2013
Poruka
3.108
X-Men Days Of Future Past (2014) 1080p BluRay x264 DTS-AMiABLE

91r_Md_Lj_PQL_SL1500.jpg


Kod:
X-Men Days Of Future Past (2014) 1080p BluRay x264-AMiABLE

Size........: 8.75 GiB
Duration....: 2:11:35
Container...: MKV
Audio.......: DTS | 1509 Kbps | 6 Channels
Video.......: x264 | 8005 Kbps | 1920x800 | 23.976 FPS
Langauge....: English
Subtitles...: English,French, Spanish, Portuguese, German, Dutch Others
Genre.......: Action | Adventure | Sci-Fi
iMDB URL....: http://www.imdb.com/title/tt1877832/

Plot
The X-Men send Wolverine to the past in a desperate effort to change history and prevent an event that results in doom for both humans and mutants.

0b4fce99dfeb468ed4ee91393b1dce10.png


4e5cee5bc36f3ae1bf00377e8bb2f0c3.png


1387853ec2623a0639c9826edf5f4181.png


Support My Work By Buying Premium from my links which encourage me to post more Exclusive quality stuff

Kod:
http://xerver.co/bpvvlv0tpojh/2145875963Xn1080p2145.mkv

Kod:
http://uploaded.net/file/o0c67twr/2145875963Xn1080p2145.mkv.part09.rar
http://uploaded.net/file/drlt7a24/2145875963Xn1080p2145.mkv.part03.rar
http://uploaded.net/file/y8o653rm/2145875963Xn1080p2145.mkv.part10.rar
http://uploaded.net/file/4gaqhabp/2145875963Xn1080p2145.mkv.part08.rar
http://uploaded.net/file/n9p97jg8/2145875963Xn1080p2145.mkv.part04.rar
http://uploaded.net/file/zpsjjsia/2145875963Xn1080p2145.mkv.part06.rar
http://uploaded.net/file/ok27ewmy/2145875963Xn1080p2145.mkv.part07.rar
http://uploaded.net/file/s1rza39x/2145875963Xn1080p2145.mkv.part01.rar
http://uploaded.net/file/3c6gfhsy/2145875963Xn1080p2145.mkv.part02.rar
http://uploaded.net/file/o6t05p89/2145875963Xn1080p2145.mkv.part05.rar

Kod:
http://rapidgator.net/file/65b1306a7834dfbee9d5eefa4500342e/2145875963Xn1080p2145.mkv.part05.rar.html
http://rapidgator.net/file/144aa5e7875fc1bf2bb94151d50b0c80/2145875963Xn1080p2145.mkv.part06.rar.html
http://rapidgator.net/file/c791cbfa1f747b96c435fe333de10889/2145875963Xn1080p2145.mkv.part07.rar.html
http://rapidgator.net/file/c7bb48a1b23a4f92a504692e4576f862/2145875963Xn1080p2145.mkv.part09.rar.html
http://rapidgator.net/file/a363c5be46b07b850ba5503c6cc40973/2145875963Xn1080p2145.mkv.part01.rar.html
http://rapidgator.net/file/879070038e2fa1b0e8711769edabea1c/2145875963Xn1080p2145.mkv.part03.rar.html
http://rapidgator.net/file/7e7663ed58eb2be3df42ed3715ad8b26/2145875963Xn1080p2145.mkv.part04.rar.html
http://rapidgator.net/file/cdba8e2866f490ab97f72edffecb7925/2145875963Xn1080p2145.mkv.part02.rar.html
http://rapidgator.net/file/16b3fa339b7f13eb309de2fefe98baaa/2145875963Xn1080p2145.mkv.part08.rar.html
http://rapidgator.net/file/270a874a9a11e5385acb34c96b134d5b/2145875963Xn1080p2145.mkv.part10.rar.html

 
Član
Učlanjen(a)
02.03.2013
Poruka
3.108
X-Men Days Of Future Past (2014) 720p BluRay x264 DTS-AMiABLE

91r_Md_Lj_PQL_SL1500.jpg



Kod:
X-Men Days Of Future Past (2014) 720p BluRay x264-AMiABLE

Size........: 5.47 GiB
Duration....: 2:11:35
Container...: MKV
Audio.......: DTS | 1509 Kbps | 6 Channels
Video.......: x264 | 4435 Kbps | 1280x536 | 23.976 FPS
Langauge....: English
Subtitles...: English,French, Spanish, Portuguese, German, Dutch Others
Genre.......: Action | Adventure | Sci-Fi
iMDB URL....: http://www.imdb.com/title/tt1877832/

Plot
The X-Men send Wolverine to the past in a desperate effort to change history and prevent an event that results in doom for both humans and mutants.

10c4c3e35a7188978c8349746841a723.png


44328d8012ebef2994597f1210da8570.png


ef8b80048485e228ec6fdcae8bfcee7c.png


Support My Work By Buying Premium from my links which encourage me to post more Exclusive quality stuff

Kod:
http://xerver.co/x5xxkxgvwwmb/21458796xm720p2145.mkv

Kod:
http://uploaded.net/file/ggcwuc0w/21458796xm720p2145.mkv.part2.rar
http://uploaded.net/file/8jrcyr1t/21458796xm720p2145.mkv.part1.rar
http://uploaded.net/file/tjvsedku/21458796xm720p2145.mkv.part4.rar
http://uploaded.net/file/7vu6lwg6/21458796xm720p2145.mkv.part5.rar
http://uploaded.net/file/6n9vg0dx/21458796xm720p2145.mkv.part3.rar
http://uploaded.net/file/aedxq2kj/21458796xm720p2145.mkv.part6.rar

Kod:
http://rapidgator.net/file/6043856cff8a639f13e68e0d42e00ad7/21458796xm720p2145.mkv.part1.rar.html
http://rapidgator.net/file/e435e1770e79cb896e1dc65de9c95651/21458796xm720p2145.mkv.part2.rar.html
http://rapidgator.net/file/44cbfbd2540806f595bedb11b2fb975b/21458796xm720p2145.mkv.part3.rar.html
http://rapidgator.net/file/4d5d9db4d495dddaa0abbb5c55eae053/21458796xm720p2145.mkv.part4.rar.html
http://rapidgator.net/file/653bc3d16b2af3f958afff6b17ea15ad/21458796xm720p2145.mkv.part5.rar.html
http://rapidgator.net/file/66f86062fd146bff141c91a2c4b9da73/21458796xm720p2145.mkv.part6.rar.html

 
Član
Učlanjen(a)
09.05.2011
Poruka
7.549
************************************************************

  • X-Men Days of Future Past (2014) MULTi 1080p BluRay x264 LOST
|
File Size: 9.83 GiB

************************************************************

x-men-days-of-future-pas.jpg


INFO:
Kod:
General
Complete name                            : x-men.days.of.future.past.2014.multi.1080p.bluray.x264-lost.mkv
Format                                   : Matroska
Format version                           : Version 2
File size                                : 9.83 GiB
Duration                                 : 2h 11mn
Overall bit rate                         : 10.7 Mbps
Writing application                      : mkvmerge v6.6.0 ('The Edge Of The In Between') built on Dec 1 2013 17:55:00
Writing library                          : libebml v1.3.0 + libmatroska v1.4.1

Video
ID                                       : 1
Format                                   : AVC
Format/Info                              : Advanced Video Codec
Format profile                           : [email protected]
Format settings, CABAC                   : Yes
Format settings, ReFrames                : 5 frames
Codec ID                                 : V_MPEG4/ISO/AVC
Duration                                 : 2h 11mn
Bit rate                                 : 8 420 Kbps
Width                                    : 1 920 pixels
Height                                   : 800 pixels
Display aspect ratio                     : 2.40:1
Frame rate mode                          : Constant
Frame rate                               : 23.976 fps
Color space                              : YUV
Chroma subsampling                       : 4:2:0
Bit depth                                : 8 bits
Scan type                                : Progressive
Bits/(Pixel*Frame)                       : 0.229
Stream size                              : 7.55 GiB (77%)
Writing library                          : x264 core 142 r2479 dd79a61
Language                                 : English
Default                                  : Yes
Forced                                   : No

Audio #1
ID                                       : 2
Format                                   : DTS
Format/Info                              : Digital Theater Systems
Mode                                     : 16
Format settings, Endianness              : Big
Codec ID                                 : A_DTS
Duration                                 : 2h 11mn
Bit rate mode                            : Constant
Bit rate                                 : 768 Kbps
Channel(s)                               : 6 channels
Channel positions                        : Front: L C R, Side: L R, LFE
Sampling rate                            : 48.0 KHz
Bit depth                                : 24 bits
Compression mode                         : Lossy
Stream size                              : 723 MiB (7%)
Language                                 : French
Default                                  : Yes
Forced                                   : No

Audio #2
ID                                       : 3
Format                                   : DTS
Format/Info                              : Digital Theater Systems
Format profile                           : ES
Mode                                     : 16
Format settings, Endianness              : Big
Codec ID                                 : A_DTS
Duration                                 : 2h 11mn
Bit rate mode                            : Constant
Bit rate                                 : 1 509 Kbps
Channel(s)                               : 6 channels
Channel positions                        : Front: L C R, Side: L R, LFE
Sampling rate                            : 48.0 KHz
Bit depth                                : 24 bits
Compression mode                         : Lossy
Stream size                              : 1.39 GiB (14%)
Language                                 : English
Default                                  : Yes
Forced                                   : No

iMDB:
Kod:
http://www.imdb.com/title/tt3758046/

vlcsnap-2014-10-03-22h24.png


vlcsnap-2014-10-03-22h24.png


vlcsnap-2014-10-03-22h25.png


Single Extraction | No Password | Interchangeable Links: | Working 100% |

Kod:
http://uploaded.net/file/bqxr668l/DaYS0fFuTuRE.1080p.LOST.part1.rar
http://uploaded.net/file/jo6ck5yr/DaYS0fFuTuRE.1080p.LOST.part2.rar
http://uploaded.net/file/pgbrq9ov/DaYS0fFuTuRE.1080p.LOST.part3.rar
http://uploaded.net/file/nz4bg782/DaYS0fFuTuRE.1080p.LOST.part4.rar
http://uploaded.net/file/dvv30f7p/DaYS0fFuTuRE.1080p.LOST.part5.rar
http://uploaded.net/file/o8dgjlt4/DaYS0fFuTuRE.1080p.LOST.part6.rar
http://uploaded.net/file/u67zodmc/DaYS0fFuTuRE.1080p.LOST.part7.rar

http://rapidgator.net/file/8c3dcfa2657cddd3524497db941e0bfb/DaYS0fFuTuRE.1080p.LOST.part1.rar.html
http://rapidgator.net/file/6a79e8dff4d4d865419d5a41a68faac8/DaYS0fFuTuRE.1080p.LOST.part2.rar.html
http://rapidgator.net/file/5e34b0ea9e668e332e6f507abc980e62/DaYS0fFuTuRE.1080p.LOST.part3.rar.html
http://rapidgator.net/file/377a84c82c08137e3c0e3bc961a25cb9/DaYS0fFuTuRE.1080p.LOST.part4.rar.html
http://rapidgator.net/file/b73c788ae74e0b5d7fca47c09e553193/DaYS0fFuTuRE.1080p.LOST.part5.rar.html
http://rapidgator.net/file/524b9a8234a1ff0d4f6860317debbd0d/DaYS0fFuTuRE.1080p.LOST.part6.rar.html
http://rapidgator.net/file/832c25bd94032e13ea202c6fc80dbbe4/DaYS0fFuTuRE.1080p.LOST.part7.rar.html

http://xerver.co/2ck5idgbho1o/DaYS0fFuTuRE.1080p.LOST.part1.rar
http://xerver.co/eeh7wxgckpte/DaYS0fFuTuRE.1080p.LOST.part2.rar
http://xerver.co/2e19n12bhcf8/DaYS0fFuTuRE.1080p.LOST.part3.rar
http://xerver.co/sr0q2u6tquy9/DaYS0fFuTuRE.1080p.LOST.part4.rar
http://xerver.co/db1b10vsuzbf/DaYS0fFuTuRE.1080p.LOST.part5.rar
http://xerver.co/9nemqzzjcs3v/DaYS0fFuTuRE.1080p.LOST.part6.rar
http://xerver.co/jpz27rudrvz7/DaYS0fFuTuRE.1080p.LOST.part7.rar

http://k2s.cc/file/50fac1e690a01/DaYS0fFuTuRE.1080p.LOST.part1.rar
http://k2s.cc/file/3829b259c30cf/DaYS0fFuTuRE.1080p.LOST.part2.rar
http://k2s.cc/file/6add95fec43de/DaYS0fFuTuRE.1080p.LOST.part3.rar
http://k2s.cc/file/17f1746ced189/DaYS0fFuTuRE.1080p.LOST.part4.rar
http://k2s.cc/file/3c72df71506a5/DaYS0fFuTuRE.1080p.LOST.part5.rar
http://k2s.cc/file/7f2c4fb2b50c5/DaYS0fFuTuRE.1080p.LOST.part6.rar
http://k2s.cc/file/c2dc184852f60/DaYS0fFuTuRE.1080p.LOST.part7.rar
 
Član
Učlanjen(a)
02.03.2013
Poruka
3.108
X-Men Days Of Future Past (2014) 3D 1080p BluRay Half-SBS DTS-ES x264-HDA

14d3828833668d329dacf178b6a9ebc7.jpg


Kod:
X-Men Days Of Future Past (2014) 3D 1080p BluRay Half-SBS DTS-ES x264-HDA

Size........: 14.3 GiB
Duration....: 2:11:35
Container...: MKV
Audio.......: DTS-ES | 1510 Kbps | 6 Channels
Video.......: x264 | 13.7 Mbps | 1920x1080 | 23.976 FPS
Langauge....: English
Subtitles...: English, English Forced  2D/3D
Genre.......: Action | Adventure | Sci-Fi
iMDB URL....: http://www.imdb.com/title/tt1877832/

Plot
The X-Men send Wolverine to the past in a desperate effort to change history and prevent an event that results in doom for both humans and mutants.

0f59856d5605b778c2376131ac82d152.png


99f9f253df0d011c6d6d9354acbf26e1.png


f5bd401a4fcc02c0b71171684e7c1cdc.png


Support My Work By Buying Premium from my links which encourage me to post more Exclusive quality stuff

Kod:
http://xerver.co/njqxteujezg1/2145876589XEN3DHSBS1080p214587.part01.rar
http://xerver.co/hg2si6ullfnu/2145876589XEN3DHSBS1080p214587.part02.rar
http://xerver.co/cu3okvf76i8w/2145876589XEN3DHSBS1080p214587.part03.rar
http://xerver.co/q8e4b775ljqz/2145876589XEN3DHSBS1080p214587.part04.rar
http://xerver.co/rq5ebr07johy/2145876589XEN3DHSBS1080p214587.part05.rar
http://xerver.co/qxu9gf3u2c3v/2145876589XEN3DHSBS1080p214587.part06.rar
http://xerver.co/gb9nxkpywij8/2145876589XEN3DHSBS1080p214587.part07.rar
http://xerver.co/oimcdvmmu5nn/2145876589XEN3DHSBS1080p214587.part08.rar
http://xerver.co/pijqoallmdnu/2145876589XEN3DHSBS1080p214587.part09.rar
http://xerver.co/dobc8c8630je/2145876589XEN3DHSBS1080p214587.part10.rar
http://xerver.co/kmvqvq63ujj1/2145876589XEN3DHSBS1080p214587.part11.rar
http://xerver.co/csbehjuzf7hj/2145876589XEN3DHSBS1080p214587.part12.rar
http://xerver.co/vm6q9s1ne5ig/2145876589XEN3DHSBS1080p214587.part13.rar
http://xerver.co/q2o3cadwl3sj/2145876589XEN3DHSBS1080p214587.part14.rar
http://xerver.co/cbkr79p31zqj/2145876589XEN3DHSBS1080p214587.part15.rar

Kod:
http://uploaded.net/file/vfac3he7/2145876589XEN3DHSBS1080p214587.part11.rar
http://uploaded.net/file/uv77vtt9/2145876589XEN3DHSBS1080p214587.part14.rar
http://uploaded.net/file/kqnqxn6q/2145876589XEN3DHSBS1080p214587.part05.rar
http://uploaded.net/file/6ib83un1/2145876589XEN3DHSBS1080p214587.part03.rar
http://uploaded.net/file/3ddzu6bd/2145876589XEN3DHSBS1080p214587.part10.rar
http://uploaded.net/file/sqj9vguw/2145876589XEN3DHSBS1080p214587.part02.rar
http://uploaded.net/file/7x54gx3o/2145876589XEN3DHSBS1080p214587.part06.rar
http://uploaded.net/file/onhyiffe/2145876589XEN3DHSBS1080p214587.part13.rar
http://uploaded.net/file/l7msosqa/2145876589XEN3DHSBS1080p214587.part12.rar
http://uploaded.net/file/rspauu63/2145876589XEN3DHSBS1080p214587.part01.rar
http://uploaded.net/file/pijq8cg8/2145876589XEN3DHSBS1080p214587.part15.rar
http://uploaded.net/file/6ua55xus/2145876589XEN3DHSBS1080p214587.part04.rar
http://uploaded.net/file/ubd1jjr6/2145876589XEN3DHSBS1080p214587.part09.rar
http://uploaded.net/file/zbet5g04/2145876589XEN3DHSBS1080p214587.part07.rar
http://uploaded.net/file/jti8h3lr/2145876589XEN3DHSBS1080p214587.part08.rar

Kod:
http://rapidgator.net/file/dcbec7fbdc83c0b59a9c9ba3977c33f3/2145876589XEN3DHSBS1080p214587.part14.rar.html
http://rapidgator.net/file/a689f94204cc3423c3bded75e91d6338/2145876589XEN3DHSBS1080p214587.part13.rar.html
http://rapidgator.net/file/820bbe0b36f2d82752cac35fe977bc9f/2145876589XEN3DHSBS1080p214587.part15.rar.html
http://rapidgator.net/file/2f0101b760c6feab603f38a490fb58b6/2145876589XEN3DHSBS1080p214587.part11.rar.html
http://rapidgator.net/file/f3651a17b5d44bcd30bfc0c99ee2c249/2145876589XEN3DHSBS1080p214587.part12.rar.html
http://rapidgator.net/file/4db15c480f8d7122d9afe89004335d8d/2145876589XEN3DHSBS1080p214587.part10.rar.html
http://rapidgator.net/file/e761f06150b140431b029c87f1ff1641/2145876589XEN3DHSBS1080p214587.part08.rar.html
http://rapidgator.net/file/bd6383b6c9a7d4c106746c7472bc6ea3/2145876589XEN3DHSBS1080p214587.part09.rar.html
http://rapidgator.net/file/bfbbd5d8cc9ef68841a8fb912967cfa9/2145876589XEN3DHSBS1080p214587.part07.rar.html
http://rapidgator.net/file/4b00e70e11f950e1dd58a472dab26dc4/2145876589XEN3DHSBS1080p214587.part06.rar.html
http://rapidgator.net/file/7fba15a376d0037cc72a60ca633f636c/2145876589XEN3DHSBS1080p214587.part05.rar.html
http://rapidgator.net/file/cd19f653b5e5d51bd982e45e4d917c74/2145876589XEN3DHSBS1080p214587.part04.rar.html
http://rapidgator.net/file/29ea45b97a9d4cb119d4a6d096cc5d75/2145876589XEN3DHSBS1080p214587.part01.rar.html
http://rapidgator.net/file/f1a7aa5bd86b7190dae917368500a4a8/2145876589XEN3DHSBS1080p214587.part02.rar.html
http://rapidgator.net/file/e45a490d5f4984acdccae472aae2a1d5/2145876589XEN3DHSBS1080p214587.part03.rar.html

 
Top