Šta je novo?
SerbianForum

Dobrodošli na SerbianForum.org, mjesto na kojem možete pronaći apsolutno sve, mjesto druženja i odlične zabave!

X-Men Days of Future Past (2014)

  • Začetnik teme Angelus
  • Datum pokretanja
Angelus

Angelus

ADMINISTRATOR



http://www.imdb.com/title/tt1877832/


The X-Men send Wolverine to the past in a desperate effort to change history and prevent an event that results in doom for both humans and mutants.

Director: Bryan Singer
Writers: Simon Kinberg (screenplay), Jane Goldman (story)
Stars: Patrick Stewart, Ian McKellen, Hugh Jackman
Genres: Action | Adventure | Fantasy | Sci-Fi



X-Men.Days.Of.Future.Past.2014.HD-TS.XVID.AC3.HQ.Hive-CM8

Thx Hive

CM8 Doing It Right The First Time

Sources:

Video: Original Chinese 720p HDCam

Audio: Millenium/Echo
thx

Notes:

Original Cam was better than whats out, noticed it got watermarked from runtime 2min to 4mins
That logo was moving from left to right screen for 2mins, kinda annoying.
As usual the cam was dark, especially the first 17mins which are at night, after that its good.
also the colours were jumping around, some scene have hardly any colour, next low some ok-ish.

Encode:

Noticed quickly there is no way to do one setting for whole movie, had to cut it into pieces
around 20 were necessary,
they all needed brightening up differently, enhancing colours and adjusting colouring manually afterwards scene by scene
was a mess to find a way through all pieces to get faces looking natural, got nice in the end.
took me cpl hours, even got rid of that watermark,which wasnt easy consider i wanted to make it unnoticable

subs for foreign parts are hardcoded

Audio is lipsync and very nice line
got very nice
enjoy


Video: 720x304 @BiTrAtE 1700 2pass
Audio: English AC3 2.0 Line
Sample: yes 2 included



http://www.imdb.com/title/tt1877832/


General
Complete name : X-Men.Days.Of.Future.Past.2014.HD-TS.XVID.AC3.HQ.Hive-CM8.avi
Format : AVI
Format/Info : Audio Video Interleave
File size : 1.74 GiB
Duration : 2h 6mn
Overall bit rate : 1 965 Kbps
Writing application : Nandub v1.0rc2
Writing library : Nandub build 1853/release

Video
ID : 0
Format : MPEG-4 Visual
Format profile : Advanced Simple@L5
Format settings, BVOP : 2
Format settings, QPel : Yes
Format settings, GMC : No warppoints
Format settings, Matrix : Default (H.263)
Muxing mode : Packed bitstream
Codec ID : XVID
Codec ID/Hint : XviD
Duration : 2h 6mn
Bit rate : 1 700 Kbps
Width : 720 pixels
Height : 304 pixels
Display aspect ratio : 2.35:1
Frame rate : 25.000 fps
Color space : YUV
Chroma subsampling : 4:2:0
Bit depth : 8 bits
Scan type : Progressive
Compression mode : Lossy
Bits/(Pixel*Frame) : 0.311
Stream size : 1.50 GiB (86%)
Writing library : XviD 1.2.1 (UTC 2008-12-04)

Audio
ID : 1
Format : AC-3
Format/Info : Audio Coding 3
Mode extension : CM (complete main)
Format settings, Endianness : Big
Codec ID : 2000
Duration : 2h 6mn
Bit rate mode : Constant
Bit rate : 256 Kbps
Channel(s) : 2 channels
Channel positions : Front: L R
Sampling rate : 48.0 KHz
Bit depth : 16 bits
Compression mode : Lossy
Stream size : 232 MiB (13%)
Alignment : Split accross interleaves
Interleave, duration : 40 ms (1.00 video frame)
Interleave, preload duration : 500 ms
















1.8 gb

Kod:
[URL="http://extratorrent.cc/download/3627429/X-Men.Days.Of.Future.Past.2014.HD-TS.XVID.AC3.HQ.Hive-CM8.torrent"]torrent[/URL]
 
Angelus

Angelus

ADMINISTRATOR



X-Men Days Of Future Past (2014) 720P x264 WEBRip nlsubs TBS



GEEN cam , goed beeld en geluid, GEEN koreaanse subs

Verenigde Staten / Verenigd Koninkrijk
Actie / Avontuur
131 minuten

geregisseerd door Bryan Singer
met Jennifer Lawrence, Nicholas Hoult en Hugh Jackman

De film speelt zich af in een alternatieve toekomst waarin Magneto’s Brotherhood een belangrijke senator vermoordt.
Als gevolg daarvan wordt de jacht op mutanten geopend en is het aan de X-Men uit het verleden en de X-Men uit de toekomst
om samen te werken en ervoor te zorgen dat enkele belangrijke gebeurtenissen die leiden tot deze dystopische toekomst voorkomen worden.

The X-Men send Wolverine to the past in a desperate effort to change history and prevent
an event that results in doom for both humans and mutants.

momenteel te zien in 77 bioscopen
Vanaf 14 oktober te huur
Vanaf 15 oktober te koop op blu-ray en dvd





http://www.imdb.com/title/tt1877832/

Trailer:




2 gb

Kod:
[URL="http://extratorrent.cc/download/3718057/X-Men+Days+Of+Future+Past+%282014%29+720P+x264+WEBRip+nlsubs+TBS.torrent"]torrent[/URL]
 
Angelus

Angelus

ADMINISTRATOR


http://www.imdb.com/title/tt1877832/


The X-Men send Wolverine to the past in a desperate effort to change history and prevent an event that results in doom for both humans and mutants.

Director: Bryan Singer
Writers: Simon Kinberg (screenplay), Jane Goldman (story)
Stars: Patrick Stewart, Ian McKellen, Hugh Jackman
Genres: Action | Adventure | Fantasy | Sci-Fi
Country: USA | UK | Canada
Language: English | Vietnamese | French


RELEASE: X-Men.Days.of.Future.Past.2014.THE.ROGUE.CUT.BRRip.XviD.AC3-EVO

SOURCE: SADPANDA (Scene)

ViDEO: 1150 kbps XviD

RESOLUTiON: 720x304

RUNTiME: 2h29m33sec

SUBTiTLES: N/A

AUDiO: 448 CBR AC-3

LANGUAGE: ENGLiSH

GREETS: Srkfan & AQOS

NOTES: +10m longer neven seen before. Enjoy.




1.5 GB

Kod:
[URL=" http://extratorrent.cc/download/4288545/X-Men.Days.of.Future.Past.2014.THE.ROGUE.CUT.BRRip.XviD.AC3-EVO.torrent"]TORRENT[/URL]
 
Top