Šta je novo?
Član
Učlanjen(a)
09.05.2011
Poruka
7.549
Wrong Turn 5 (2012) 1080p Bluray x264-DAA
File Size: 6,56 GiB


wt5.jpg


Kod:
[B]General
Complete name                            : daa-wturn5-1080p.mkv
Format                                   : Matroska
Format version                           : Version 2
File size                                : 6.56 GiB
Duration                                 : 1h 30mn
Overall bit rate                         : 10.3 Mbps
Encoded date                             : UTC 2012-10-24 20:49:51
Writing application                      : mkvmerge v5.8.0 ('No Sleep / Pillow') built on Sep  2 2012 15:37:04
Writing library                          : libebml v1.2.3 + libmatroska v1.3.0

Video
ID                                       : 2
Format                                   : AVC
Format/Info                              : Advanced Video Codec
Format profile                           : High@L4.1
Format settings, CABAC                   : Yes
Format settings, ReFrames                : 4 frames
Muxing mode                              : Header stripping
Codec ID                                 : V_MPEG4/ISO/AVC
Duration                                 : 1h 30mn
Bit rate                                 : 8 830 Kbps
Width                                    : 1 920 pixels
Height                                   : 1 080 pixels
Display aspect ratio                     : 16:9
Frame rate mode                          : Constant
Frame rate                               : 23.976 fps
Color space                              : YUV
Chroma subsampling                       : 4:2:0
Bit depth                                : 8 bits
Scan type                                : Progressive
Bits/(Pixel*Frame)                       : 0.178
Stream size                              : 5.47 GiB (83%)
Writing library                          : x264 core 128 r2216kMod 198a7ea
Default                                  : Yes
Forced                                   : No

Audio
ID                                       : 1
Format                                   : DTS
Format/Info                              : Digital Theater Systems
Muxing mode                              : Header stripping
Codec ID                                 : A_DTS
Duration                                 : 1h 30mn
Bit rate mode                            : Constant
Bit rate                                 : 1 510 Kbps
Channel(s)                               : 6 channels
Channel positions                        : Front: L C R, Side: L R, LFE
Sampling rate                            : 48.0 KHz
Bit depth                                : 24 bits
Compression mode                         : Lossy
Stream size                              : 981 MiB (15%)
Default                                  : Yes
Forced                                   : No[/B]

Kod:
http://imdb.com/title/tt2375779/

vlcsnap-2012-10-25-09h35.png


vlcsnap-2012-10-25-09h37.png


vlcsnap-2012-10-25-09h37.png



DOWNLOAD:
Kod:
http://uploaded.net/file/78fx02dz/Wrong.Turn.5.2012.720p.Bluray.x264-DAA.1500.part1.rar
http://uploaded.net/file/euj12ho2/Wrong.Turn.5.2012.720p.Bluray.x264-DAA.1500.part2.rar
http://uploaded.net/file/jd892sap/Wrong.Turn.5.2012.720p.Bluray.x264-DAA.1500.part3.rar
http://uploaded.net/file/om57ho92/Wrong.Turn.5.2012.720p.Bluray.x264-DAA.1500.part4.rar
 
Poslednja izmena od urednika:
Top