Šta je novo?
Član
Učlanjen(a)
09.05.2011
Poruka
7.549
=
Wrong (2012) LIMITED 1080p BluRay x264-GECKOS
File Size: 6.56 GiB

=

wrong.jpg



General
Complete name : Wrong.2012.1080p.BluRay.x264-GECKOS.mkv
Format : Matroska
Format version : Version 4 / Version 2
File size : 6.56 GiB
Duration : 1h 33mn
Overall bit rate : 10.0 Mbps
Encoded date : UTC 2013-05-19 01:22:32
Writing application : mkvmerge v6.1.0 ('Old Devil') built on Mar 2 2013 14:32:37
Writing library : libebml v1.3.0 + libmatroska v1.4.0

Video
ID : 1
Format : AVC
Format/Info : Advanced Video Codec
Format profile : High@L4.1
Format settings, CABAC : Yes
Format settings, ReFrames : 4 frames
Codec ID : V_MPEG4/ISO/AVC
Duration : 1h 33mn
Bit rate : 8 530 Kbps
Width : 1 920 pixels
Height : 1 040 pixels
Display aspect ratio : 1.85:1
Frame rate mode : Constant
Frame rate : 23.976 fps
Color space : YUV
Chroma subsampling : 4:2:0
Bit depth : 8 bits
Scan type : Progressive
Bits/(Pixel*Frame) : 0.178
Stream size : 5.44 GiB (83%)
Title : X264
Writing library : x264 core 130 r2273 b3065e6
Language : English
Default : Yes
Forced : No

Audio
ID : 2
Format : DTS
Format/Info : Digital Theater Systems
Mode : 16
Format settings, Endianness : Big
Codec ID : A_DTS
Duration : 1h 33mn
Bit rate mode : Constant
Bit rate : 1 509 Kbps
Channel(s) : 6 channels
Channel positions : Front: L C R, Side: L R, LFE
Sampling rate : 48.0 KHz
Bit depth : 24 bits
Compression mode : Lossy
Stream size : 1 009 MiB (15%)
Title : DTS
Language : English
Default : Yes
Forced : No

Kod:
http://www.imdb.com/title/tt1901040/

vlcsnap-2013-05-19-12h22.png


vlcsnap-2013-05-19-12h23.png


vlcsnap-2013-05-19-12h25.png



DOWNLOAD:
Kod:
http://uploaded.net/file/52v0w033/Wrong.2012.1080p.GECKOS.part1.rar
http://uploaded.net/file/77bpiwh9/Wrong.2012.1080p.GECKOS.part2.rar
http://uploaded.net/file/k3b696v1/Wrong.2012.1080p.GECKOS.part3.rar
http://uploaded.net/file/0bgu1j2t/Wrong.2012.1080p.GECKOS.part4.rar
http://uploaded.net/file/qmis8v5i/Wrong.2012.1080p.GECKOS.part5.rar
http://uploaded.net/file/setuqb47/Wrong.2012.1080p.GECKOS.part6.rar
http://uploaded.net/file/sw49c2rg/Wrong.2012.1080p.GECKOS.part7.rar

http://www.filefactory.com/file/10426ru3zq7f/n/Wrong.2012.1080p.GECKOS.part1.rar
http://www.filefactory.com/file/1ui04vor2i6z/n/Wrong.2012.1080p.GECKOS.part2.rar
http://www.filefactory.com/file/5mgjnm1kbw4b/n/Wrong.2012.1080p.GECKOS.part3.rar
http://www.filefactory.com/file/2kl8zvfnmcjn/n/Wrong.2012.1080p.GECKOS.part4.rar
http://www.filefactory.com/file/yy7xoyjpagp/n/Wrong.2012.1080p.GECKOS.part5.rar
http://www.filefactory.com/file/2b5jxzxo3bqj/n/Wrong.2012.1080p.GECKOS.part6.rar
http://www.filefactory.com/file/2hrqnjhiu69h/n/Wrong.2012.1080p.GECKOS.part7.rar
 
Poslednja izmena od urednika:
Top