Šta je novo?
Član
Učlanjen(a)
09.05.2011
Poruka
7.549
=
Would You Rather (2012) 720p BluRay DTS-5.1 x264-AXED
File Size: 5,44 GiB

=

rather.png



General
Complete name : Would.You.Rather.2012.720p.BluRay.DTS-5.1.x264-AXED.mkv
Format : Matroska
Format version : Version 2
File size : 5.44 GiB
Duration : 1h 33mn
Overall bit rate : 8 343 Kbps
Encoded date : UTC 2013-07-03 23:07:18
Writing application : mkvmerge v4.0.0 ('The Stars were mine') built on Jun 6 2010 16:18:42
Writing library : libebml v1.0.0 + libmatroska v1.0.0

Video
ID : 1
Format : AVC
Format/Info : Advanced Video Codec
Format profile : High@L4.1
Format settings, CABAC : Yes
Format settings, ReFrames : 9 frames
Codec ID : V_MPEG4/ISO/AVC
Duration : 1h 33mn
Bit rate : 6 668 Kbps
Width : 1 280 pixels
Height : 544 pixels
Display aspect ratio : 2.35:1
Frame rate mode : Constant
Frame rate : 23.976 fps
Color space : YUV
Chroma subsampling : 4:2:0
Bit depth : 8 bits
Scan type : Progressive
Bits/(Pixel*Frame) : 0.399
Stream size : 4.35 GiB (80%)
Writing library : x264 core 68 r1195bm 5d75a9b
Default : Yes
Forced : No

Audio
ID : 2
Format : DTS
Format/Info : Digital Theater Systems
Mode : 16
Format settings, Endianness : Big
Codec ID : A_DTS
Duration : 1h 33mn
Bit rate mode : Constant
Bit rate : 1 509 Kbps
Channel(s) : 6 channels
Channel positions : Front: L C R, Side: L R, LFE
Sampling rate : 48.0 KHz
Bit depth : 24 bits
Compression mode : Lossy
Stream size : 1 008 MiB (18%)
Default : Yes
Forced : No

Kod:
http://www.imdb.com/title/tt1999995/

vlcsnap-2013-07-04-09h46.png


vlcsnap-2013-07-04-09h46.png


vlcsnap-2013-07-04-09h47.png



DOWNLOAD:
Kod:
http://uploaded.net/file/v6d0tc89/Would.You.Rather.2012.720p.AXED.part1.rar
http://uploaded.net/file/0bwu28kg/Would.You.Rather.2012.720p.AXED.part2.rar
http://uploaded.net/file/of4hhnvl/Would.You.Rather.2012.720p.AXED.part3.rar
http://uploaded.net/file/oyjd0bqa/Would.You.Rather.2012.720p.AXED.part4.rar
http://uploaded.net/file/i972rt81/Would.You.Rather.2012.720p.AXED.part5.rar
http://uploaded.net/file/9e5e2q3r/Would.You.Rather.2012.720p.AXED.part6.rar

http://rapidgator.net/file/5a7d2c116646f6e2bf9f1f10b5de6366/Would.You.Rather.2012.720p.AXED.part1.rar.html
http://rapidgator.net/file/205856572453f07d91734d01333d92ee/Would.You.Rather.2012.720p.AXED.part2.rar.html
http://rapidgator.net/file/09ffc5df9270429946ee169e808591c7/Would.You.Rather.2012.720p.AXED.part3.rar.html
http://rapidgator.net/file/9ce7fe14c0f2e1d2a909948e3d0d161f/Would.You.Rather.2012.720p.AXED.part4.rar.html
http://rapidgator.net/file/20a0d9def12219371b19bab1d0afce84/Would.You.Rather.2012.720p.AXED.part5.rar.html
http://rapidgator.net/file/952c516aafb9fc576148441cf4848a94/Would.You.Rather.2012.720p.AXED.part6.rar.html

http://www.netload.in/datei6Kpr8nk45v/Would.You.Rather.2012.720p.AXED.part1.rar.htm
http://www.netload.in/dateiMPWNUknaYl/Would.You.Rather.2012.720p.AXED.part2.rar.htm
http://www.netload.in/dateitpgRsgQZNF/Would.You.Rather.2012.720p.AXED.part3.rar.htm
http://www.netload.in/dateip56ciVJQUv/Would.You.Rather.2012.720p.AXED.part4.rar.htm
http://www.netload.in/datei7rcFNkQKhg/Would.You.Rather.2012.720p.AXED.part5.rar.htm
http://www.netload.in/dateirSIzO9gbvl/Would.You.Rather.2012.720p.AXED.part6.rar.htm

http://www.filefactory.com/file/70caowxous9r/n/Would.You.Rather.2012.720p.AXED.part1.rar
http://www.filefactory.com/file/7fvytpxq00bp/n/Would.You.Rather.2012.720p.AXED.part2.rar
http://www.filefactory.com/file/4iw88ciq17jn/n/Would.You.Rather.2012.720p.AXED.part3.rar
http://www.filefactory.com/file/4fbq56s8lgqp/n/Would.You.Rather.2012.720p.AXED.part4.rar
http://www.filefactory.com/file/m0jgtkrx7vh/n/Would.You.Rather.2012.720p.AXED.part5.rar
http://www.filefactory.com/file/4ibci63nzaor/n/Would.You.Rather.2012.720p.AXED.part6.rar
 
Top