Šta je novo?

Woody Woodpecker and Friends (1957)

ADMINISTRATOR
Učlanjen(a)
11.10.2009
Poruka
63.928
Woody Woodpecker and Friends (1957)

DVDRip.XviD-aAF


Vol. 1 & 2

woodywoodpeckerandfrien.jpg
[/CENTER]



Kod:
http://www.imdb.com/title/tt0184035/




General
Complete name: Woody.Woodpecker.and.Friends.1957.DVDRip-aAF.cd1.avi
Format : AVI
Format/Info: Audio Video Interleave
File size: 350 MiB
Duration : 45mn 42s
Overall bit rate mode: Variable
Overall bit rate : 1 069 Kbps

Video
ID : 0
Format : MPEG-4 Visual
Codec ID : XVID
Codec ID/Hint: XviD
Duration : 45mn 42s
Bit rate : 973 Kbps
Width: 512 pixels
Height : 384 pixels
Display aspect ratio : 4:3
Frame rate : 25.000 fps
Color space: YUV
Chroma subsampling : 4:2:0
Bit depth: 8 bits
Scan type: Progressive
Compression mode : Lossy
Bits/(Pixel*Frame) : 0.198
Stream size: 318 MiB (91%)

Audio
ID : 1
Format : MPEG Audio
Format version : Version 1
Format profile : Layer 3
Codec ID : 55
Codec ID/Hint: MP3
Duration : 45mn 42s
Bit rate mode: Variable
Bit rate : 83.8 Kbps
Channel(s) : 1 channel
Sampling rate: 48.0 KHz
Compression mode : Lossy
Stream size: 27.4 MiB (8%)
Alignment: Aligned on interleaves
Interleave, duration : 24 ms (0.60 video frame)
Interleave, preload duration : 219 ms


General
Complete name: Woody.Woodpecker.and.Friends.1957.DVDRip-aAF.cd2.avi
Format : AVI
Format/Info: Audio Video Interleave
File size: 350 MiB
Duration : 45mn 59s
Overall bit rate mode: Variable
Overall bit rate : 1 063 Kbps

Video
ID : 0
Format : MPEG-4 Visual
Codec ID : XVID
Codec ID/Hint: XviD
Duration : 45mn 59s
Bit rate : 965 Kbps
Width: 512 pixels
Height : 384 pixels
Display aspect ratio : 4:3
Frame rate : 25.000 fps
Color space: YUV
Chroma subsampling : 4:2:0
Bit depth: 8 bits
Scan type: Progressive
Compression mode : Lossy
Bits/(Pixel*Frame) : 0.196
Stream size: 317 MiB (91%)

Audio
ID : 1
Format : MPEG Audio
Format version : Version 1
Format profile : Layer 3
Codec ID : 55
Codec ID/Hint: MP3
Duration : 45mn 59s
Bit rate mode: Variable
Bit rate : 85.1 Kbps
Channel(s) : 1 channel
Sampling rate: 48.0 KHz
Compression mode : Lossy
Stream size: 28.0 MiB (8%)
Alignment: Aligned on interleaves
Interleave, duration : 24 ms (0.60 video frame)
Interleave, preload duration : 216 ms



woodywoodpeckerandfrien.jpg

woodywoodpeckerandfrienh.jpg


Kod:
http://ul.to/b5wqylb7/Woody.Woodpecker.and.Friends.1957.DVDRip-aAF.cd1.avi
http://ul.to/96f29u5o/Woody.Woodpecker.and.Friends.1957.DVDRip-aAF.cd2.avi
or
http://www.wupload.com/file/2323351672/Woody.Woodpecker.and.Friends.1957.DVDRip-aAF.cd1.avi
http://www.wupload.com/file/2323356897/Woody.Woodpecker.and.Friends.1957.DVDRip-aAF.cd2.avi
or
http://www.filesonic.com/file/3701231564/Woody.Woodpecker.and.Friends.1957.DVDRip-aAF.cd1.avi
http://www.filesonic.com/file/3701254984/Woody.Woodpecker.and.Friends.1957.DVDRip-aAF.cd2.avi
or
http://www.uploadstation.com/file/eyS9PTg/Woody.Woodpecker.and.Friends.1957.DVDRip-aAF.cd2.avi
http://www.uploadstation.com/file/hJgg5Rc/Woody.Woodpecker.and.Friends.1957.DVDRip-aAF.cd1.avi
or
http://www.fileserve.com/file/CAPYfpM/Woody.Woodpecker.and.Friends.1957.DVDRip-aAF.cd1.avi
http://www.fileserve.com/file/PxfdADG/Woody.Woodpecker.and.Friends.1957.DVDRip-aAF.cd2.avi
or
http://uploading.com/files/8eb79ba5/Woody.Woodpecker.and.Friends.1957.DVDRip-aAF.cd2.avi/
http://uploading.com/files/45d1343b/Woody.Woodpecker.and.Friends.1957.DVDRip-aAF.cd1.avi/
 
Top