Šta je novo?

Who Framed Roger Rabbit (1988)

ADMINISTRATOR
Učlanjen(a)
11.10.2009
Poruka
63.620
78416487.jpg





Who Framed Roger Rabbit (1988)
BRRip 480p - TinyBearDs | MKV | 848 x 460 | x264 600kbps 23.976fps | HE-AACv2 64kbps 2CH
Language: English | Subtitle: English Included | 1h 43mn | 493.33MB | 3% Recovery
Genre: Animation | Comedy | Crime | Fantasy | Won 3 Oscars. Another 18 wins & 21 nominations.
IMDb Rating: 7.7/10 (86,478 users)

Director: Robert Zemeckis
'Toon star Roger is worried that his wife Jessica is playing pattycake with someone else, so the studio hires detective Eddie Valiant to snoop on her. But the stakes are quickly raised when Marvin Acme is found dead and Roger is the prime suspect. Groundbreaking interaction between the live and animated characters, and lots of references to classic animation.





Kod:
http://ul.to/zei9d4kh/4355.part1.rar
http://ul.to/j9vh085z/4355.part2.rar
http://ul.to/5tw1ugjd/4355.part3.rar
 
Poslednja izmena od urednika:
MODERATOR
Učlanjen(a)
02.05.2009
Poruka
30.115
78416487.jpg





General
Complete name : I:\Filmovi\Crtani,decij filmovi\Disney Movies\Sa Prevodom\1988 - Who Framed Roger Rabbit\1988 - Who Framed Roger Rabbit.avi
Format : AVI
Format/Info : Audio Video Interleave
File size : 732 MiB
Duration : 1h 43mn
Overall bit rate : 987 Kbps

Video
ID : 0
Format : MPEG-4 Visual
Format profile : Advanced Simple@L5
Format settings, BVOP : 2
Format settings, QPel : No
Format settings, GMC : No warppoints
Format settings, Matrix : Default (H.263)
Muxing mode : Packed bitstream
Codec ID : XVID
Codec ID/Hint : XviD
Duration : 1h 43mn
Bit rate : 849 Kbps
Width : 720 pixels
Height : 432 pixels
Display aspect ratio : 1.667
Frame rate : 23.976 fps
Color space : YUV
Chroma subsampling : 4:2:0
Bit depth : 8 bits
Scan type : Progressive
Compression mode : Lossy
Bits/(Pixel*Frame) : 0.114
Stream size : 630 MiB (86%)
Writing library : XviD 1.1.2 (UTC 2006-11-01)

Audio
ID : 1
Format : MPEG Audio
Format version : Version 1
Format profile : Layer 3
Codec ID : 55
Codec ID/Hint : MP3
Duration : 1h 43mn
Bit rate mode : Constant
Bit rate : 128 Kbps
Channel(s) : 2 channels
Sampling rate : 48.0 KHz
Compression mode : Lossy
Delay relative to video : 24ms
Stream size : 95.0 MiB (13%)
Alignment : Split accross interleaves
Interleave, duration : 42 ms (1.00 video frame)
Title : Audio Stream
Writing library : LAME3.92



1988-who-framed-roger-ra.jpg





Kod:
http://www.netload.in/datei8k85HhrKuy/1988.-.Who.Framed.Roger.Rabbit.rar.htm
 
Poslednja izmena:
Top