Šta je novo?

We Are What We Are (2013)

Član
Učlanjen(a)
09.05.2011
Poruka
7.549
=
We Are What We Are (2013) LIMITED 720p BluRay x264-GECKOS
File Size: 4.37 GiB

=

2CKwhli.jpg


Title: We Are What We Are
Year: 2013
Genre: Drama, Horror, Thriller
Rating: 6.1 (638 votes)
Runtime: 1 h 45 min
Director: Jim Mickle
Cast: Bill Sage, Ambyr Childers, Julia Garner, Wyatt Russell
Plot:
Kod:
The Parkers, a reclusive family who follow ancient customs, find their secret existence threatened as a torrential downpour moves into their area, forcing daughters Iris and Rose to assume responsibilities beyond those of a typical family.



General
Complete name : We.Are.What.We.Are.2013.LIMITED.720p.BluRay.x264-GECKOS.mkv
Format : Matroska
Format version : Version 4 / Version 2
File size : 4.37 GiB
Duration : 1h 45mn
Overall bit rate : 5 944 Kbps
Encoded date : UTC 2013-10-23 14:31:34
Writing application : mkvmerge v6.2.0 ('Promised Land') built on Apr 28 2013 12:22:01
Writing library : libebml v1.3.0 + libmatroska v1.4.0

Video
ID : 1
Format : AVC
Format/Info : Advanced Video Codec
Format profile : High@L4.1
Format settings, CABAC : Yes
Format settings, ReFrames : 5 frames
Codec ID : V_MPEG4/ISO/AVC
Duration : 1h 45mn
Bit rate : 4 437 Kbps
Width : 1 280 pixels
Height : 536 pixels
Display aspect ratio : 2.40:1
Frame rate mode : Constant
Frame rate : 23.976 fps
Color space : YUV
Chroma subsampling : 4:2:0
Bit depth : 8 bits
Scan type : Progressive
Bits/(Pixel*Frame) : 0.270
Stream size : 3.17 GiB (73%)
Title : X264
Writing library : x264 core 133 r2334 a3ac64b
Language : English
Default : Yes
Forced : No

Audio
ID : 2
Format : DTS
Format/Info : Digital Theater Systems
Mode : 16
Format settings, Endianness : Big
Codec ID : A_DTS
Duration : 1h 45mn
Bit rate mode : Constant
Bit rate : 1 509 Kbps
Channel(s) : 6 channels
Channel positions : Front: L C R, Side: L R, LFE
Sampling rate : 48.0 KHz
Bit depth : 24 bits
Compression mode : Lossy
Stream size : 1.11 GiB (25%)
Title : DTS
Language : English
Default : Yes
Forced : No

Imdb Url:
Kod:
http://www.imdb.com/title/tt2309021/
Movie Trailer:
Kod:
http://www.youtube.com/watch?v=KXKogr0O-Zc


vlcsnap-2013-10-23-19h46.png


vlcsnap-2013-10-23-19h46.png


vlcsnap-2013-10-23-19h46.png



DOWNLOAD:
Kod:
http://uploaded.net/file/y9by9op8/Gec.wawwa.720p.part1.rar
http://uploaded.net/file/r7d9r6gi/Gec.wawwa.720p.part2.rar
http://uploaded.net/file/0qgwqrfi/Gec.wawwa.720p.part3.rar
http://uploaded.net/file/ney1gjuz/Gec.wawwa.720p.part4.rar
http://uploaded.net/file/30bwh4if/Gec.wawwa.720p.part5.rar

http://rapidgator.net/file/4f24857009ed2849e58e0005515dc4d8/Gec.wawwa.720p.part1.rar.html
http://rapidgator.net/file/1e8a77b649c0f1b091628200da95ce67/Gec.wawwa.720p.part2.rar.html
http://rapidgator.net/file/cebe58aa7b528052bea725cb48593e29/Gec.wawwa.720p.part3.rar.html
http://rapidgator.net/file/62abafeb15110a1fe5777e4e0e4fb747/Gec.wawwa.720p.part4.rar.html
http://rapidgator.net/file/8fc23ca178d127dee73bcfd703acd83f/Gec.wawwa.720p.part5.rar.html

http://fileparadox.in/1cx2ydwxv22y/Gec.wawwa.720p.part1.rar
http://fileparadox.in/ef91ka4p0ak6/Gec.wawwa.720p.part2.rar
http://fileparadox.in/9u8632kqzswj/Gec.wawwa.720p.part3.rar
http://fileparadox.in/b8k7gxxz5em0/Gec.wawwa.720p.part4.rar
http://fileparadox.in/8af0vslebvtq/Gec.wawwa.720p.part5.rar

http://lumfile.com/vtmbspf0c3b2/Gec.wawwa.720p.part1.rar.html
http://lumfile.com/jeaokg5dk47a/Gec.wawwa.720p.part2.rar.html
http://lumfile.com/z6ho2coh7ima/Gec.wawwa.720p.part3.rar.html
http://lumfile.com/6e50gwv7a245/Gec.wawwa.720p.part4.rar.html
http://lumfile.com/nk6ibi9c8rr8/Gec.wawwa.720p.part5.rar.html

DOWNLOAD SINGL LINKS:
Kod:
http://uploaded.net/file/622bq26d/We.Are.What.We.Are.2013.LIMITED.720p.BluRay.x264-GECKOS.mkv
http://rapidgator.net/file/f7f909c32649eac0950337c65b8bce11/We.Are.What.We.Are.2013.LIMITED.720p.BluRay.x264-GECKOS.mkv.html
http://fileparadox.in/zfboqme8pjb5/We.Are.What.We.Are.2013.LIMITED.720p.BluRay.x264-GECKOS.mkv
http://lumfile.com/h5334pnrryxr/We.Are.What.We.Are.2013.LIMITED.720p.BluRay.x264-GECKOS.mkv.html
 
Učlanjen(a)
28.09.2013
Poruka
122
=
We Are What We Are (2013) LIMITED 720p BluRay x264-GECKOS
File Size: 4.37 GiB

=

2CKwhli.jpg


Title: We Are What We Are
Year: 2013
Genre: Drama, Horror, Thriller
Rating: 6.1 (638 votes)
Runtime: 1 h 45 min
Director: Jim Mickle
Cast: Bill Sage, Ambyr Childers, Julia Garner, Wyatt Russell
Plot:
Kod:
The Parkers, a reclusive family who follow ancient customs, find their secret existence threatened as a torrential downpour moves into their area, forcing daughters Iris and Rose to assume responsibilities beyond those of a typical family.

General
Complete name : We.Are.What.We.Are.2013.LIMITED.720p.BluRay.x264-GECKOS.mkv
Format : Matroska
Format version : Version 4 / Version 2
File size : 4.37 GiB
Duration : 1h 45mn
Overall bit rate : 5 944 Kbps
Encoded date : UTC 2013-10-23 14:31:34
Writing application : mkvmerge v6.2.0 ('Promised Land') built on Apr 28 2013 12:22:01
Writing library : libebml v1.3.0 + libmatroska v1.4.0

Video
ID : 1
Format : AVC
Format/Info : Advanced Video Codec
Format profile : High@L4.1
Format settings, CABAC : Yes
Format settings, ReFrames : 5 frames
Codec ID : V_MPEG4/ISO/AVC
Duration : 1h 45mn
Bit rate : 4 437 Kbps
Width : 1 280 pixels
Height : 536 pixels
Display aspect ratio : 2.40:1
Frame rate mode : Constant
Frame rate : 23.976 fps
Color space : YUV
Chroma subsampling : 4:2:0
Bit depth : 8 bits
Scan type : Progressive
Bits/(Pixel*Frame) : 0.270
Stream size : 3.17 GiB (73%)
Title : X264
Writing library : x264 core 133 r2334 a3ac64b
Language : English
Default : Yes
Forced : No

Audio
ID : 2
Format : DTS
Format/Info : Digital Theater Systems
Mode : 16
Format settings, Endianness : Big
Codec ID : A_DTS
Duration : 1h 45mn
Bit rate mode : Constant
Bit rate : 1 509 Kbps
Channel(s) : 6 channels
Channel positions : Front: L C R, Side: L R, LFE
Sampling rate : 48.0 KHz
Bit depth : 24 bits
Compression mode : Lossy
Stream size : 1.11 GiB (25%)
Title : DTS
Language : English
Default : Yes
Forced : No

Imdb Url:

Kod:
http://www.imdb.com/title/tt2309021/
Movie Trailer:

Kod:
http://www.youtube.com/watch?v=KXKogr0O-Zc

vlcsnap-2013-10-23-19h46.png


vlcsnap-2013-10-23-19h46.png


vlcsnap-2013-10-23-19h46.png



DOWNLOAD:

Kod:
http://uploaded.net/file/y9by9op8/Gec.wawwa.720p.part1.rar
http://uploaded.net/file/r7d9r6gi/Gec.wawwa.720p.part2.rar
http://uploaded.net/file/0qgwqrfi/Gec.wawwa.720p.part3.rar
http://uploaded.net/file/ney1gjuz/Gec.wawwa.720p.part4.rar
http://uploaded.net/file/30bwh4if/Gec.wawwa.720p.part5.rar

http://rapidgator.net/file/4f24857009ed2849e58e0005515dc4d8/Gec.wawwa.720p.part1.rar.html
http://rapidgator.net/file/1e8a77b649c0f1b091628200da95ce67/Gec.wawwa.720p.part2.rar.html
http://rapidgator.net/file/cebe58aa7b528052bea725cb48593e29/Gec.wawwa.720p.part3.rar.html
http://rapidgator.net/file/62abafeb15110a1fe5777e4e0e4fb747/Gec.wawwa.720p.part4.rar.html
http://rapidgator.net/file/8fc23ca178d127dee73bcfd703acd83f/Gec.wawwa.720p.part5.rar.html

http://fileparadox.in/1cx2ydwxv22y/Gec.wawwa.720p.part1.rar
http://fileparadox.in/ef91ka4p0ak6/Gec.wawwa.720p.part2.rar
http://fileparadox.in/9u8632kqzswj/Gec.wawwa.720p.part3.rar
http://fileparadox.in/b8k7gxxz5em0/Gec.wawwa.720p.part4.rar
http://fileparadox.in/8af0vslebvtq/Gec.wawwa.720p.part5.rar

http://lumfile.com/vtmbspf0c3b2/Gec.wawwa.720p.part1.rar.html
http://lumfile.com/jeaokg5dk47a/Gec.wawwa.720p.part2.rar.html
http://lumfile.com/z6ho2coh7ima/Gec.wawwa.720p.part3.rar.html
http://lumfile.com/6e50gwv7a245/Gec.wawwa.720p.part4.rar.html
http://lumfile.com/nk6ibi9c8rr8/Gec.wawwa.720p.part5.rar.html
DOWNLOAD SINGL LINKS:

Kod:
http://uploaded.net/file/622bq26d/We.Are.What.We.Are.2013.LIMITED.720p.BluRay.x264-GECKOS.mkv
http://rapidgator.net/file/f7f909c32649eac0950337c65b8bce11/We.Are.What.We.Are.2013.LIMITED.720p.BluRay.x264-GECKOS.mkv.html
http://fileparadox.in/zfboqme8pjb5/We.Are.What.We.Are.2013.LIMITED.720p.BluRay.x264-GECKOS.mkv
http://lumfile.com/h5334pnrryxr/We.Are.What.We.Are.2013.LIMITED.720p.BluRay.x264-GECKOS.mkv.html
 
Član
Učlanjen(a)
21.01.2013
Poruka
1.111
f1b7c328522cbb077059d3b0c6e85547.jpg


We Are What We Are (2013) 1080p BluRay DTS x264-PublicHD
I.M.D.B INFO
Kod:
http://www.imdb.com/title/tt2309021/
Language: English
1h 45mn | 1920 x 804 | x264 - 10.8 Mbps | 23.976 fps | DTS - 1 510 Kbps | 7.95 GiB
Genre: Drama | Horror | Thriller

A seemingly wholesome and benevolent family, the Parkers have always kept to themselves, and for good reason. Behind closed doors, patriarch Frank rules his family with a rigorous fervor, determined to keep his ancestral customs intact at any cost. As a torrential rainstorm moves into the area, tragedy strikes and his daughters Iris and Rose are forced to assume responsibilities that extend beyond those of a typical family. As the unrelenting downpour continues to flood their small town, the local authorities begin to uncover clues that bring them closer to the secret that the Parkers have held closely for so many years.



SCREENSHOTS

baa1611764ee8ed1e05f73d705871a15.jpg



navz.gif

(All below links are interchangable. No password)

Download From Rapidgator
Kod:
http://rapidgator.net/file/eb1d08f57eafd61d56d67b2174e5de5c/We.Are.What.We.Are.2013.1080p.BluRay.DTS.x264-PublicHD.part01.rar.html
http://rapidgator.net/file/84dea8f3537332e9786503e5c16d08e1/We.Are.What.We.Are.2013.1080p.BluRay.DTS.x264-PublicHD.part02.rar.html
http://rapidgator.net/file/743aa1b704dc03dbc4765b3386b63696/We.Are.What.We.Are.2013.1080p.BluRay.DTS.x264-PublicHD.part03.rar.html
http://rapidgator.net/file/2974f72d7135adbbc833dcc51a00aec3/We.Are.What.We.Are.2013.1080p.BluRay.DTS.x264-PublicHD.part04.rar.html
http://rapidgator.net/file/cb8d5a1a4eb9bc6ab0a34fb3b724f98e/We.Are.What.We.Are.2013.1080p.BluRay.DTS.x264-PublicHD.part05.rar.html
http://rapidgator.net/file/d305f8b72a59591f4fd420102ad16700/We.Are.What.We.Are.2013.1080p.BluRay.DTS.x264-PublicHD.part06.rar.html
http://rapidgator.net/file/34d2a2581fea37ec929d688f331ce8e4/We.Are.What.We.Are.2013.1080p.BluRay.DTS.x264-PublicHD.part07.rar.html
http://rapidgator.net/file/1ea01ddfd8962a60933ad111dc9e55fa/We.Are.What.We.Are.2013.1080p.BluRay.DTS.x264-PublicHD.part08.rar.html
http://rapidgator.net/file/bacfe7d08f03542678e132edc3eab27a/We.Are.What.We.Are.2013.1080p.BluRay.DTS.x264-PublicHD.part09.rar.html
http://rapidgator.net/file/ccf540174649f66632bba123b5e4775e/We.Are.What.We.Are.2013.1080p.BluRay.DTS.x264-PublicHD.part10.rar.html

Download From Uploaded
Kod:
http://uploaded.net/file/wv1tplrd/We.Are.What.We.Are.2013.1080p.BluRay.DTS.x264-PublicHD.part01.rar
http://uploaded.net/file/5o4qlcqd/We.Are.What.We.Are.2013.1080p.BluRay.DTS.x264-PublicHD.part02.rar
http://uploaded.net/file/ikpwubzq/We.Are.What.We.Are.2013.1080p.BluRay.DTS.x264-PublicHD.part03.rar
http://uploaded.net/file/n823pcqw/We.Are.What.We.Are.2013.1080p.BluRay.DTS.x264-PublicHD.part04.rar
http://uploaded.net/file/htzkxl97/We.Are.What.We.Are.2013.1080p.BluRay.DTS.x264-PublicHD.part05.rar
http://uploaded.net/file/7kwq3hmf/We.Are.What.We.Are.2013.1080p.BluRay.DTS.x264-PublicHD.part06.rar
http://uploaded.net/file/fl5g3lm1/We.Are.What.We.Are.2013.1080p.BluRay.DTS.x264-PublicHD.part07.rar
http://uploaded.net/file/8h08wlbp/We.Are.What.We.Are.2013.1080p.BluRay.DTS.x264-PublicHD.part08.rar
http://uploaded.net/file/4el4v0tx/We.Are.What.We.Are.2013.1080p.BluRay.DTS.x264-PublicHD.part09.rar
http://uploaded.net/file/9akr6w7s/We.Are.What.We.Are.2013.1080p.BluRay.DTS.x264-PublicHD.part10.rar

Download From Secureupload
Kod:
http://www.secureupload.eu/dsloj43jz7x4/We.Are.What.We.Are.2013.1080p.BluRay.DTS.x264-PublicHD.part01.rar
http://www.secureupload.eu/y3kbaxcpgznn/We.Are.What.We.Are.2013.1080p.BluRay.DTS.x264-PublicHD.part02.rar
http://www.secureupload.eu/2ltox1bfivug/We.Are.What.We.Are.2013.1080p.BluRay.DTS.x264-PublicHD.part03.rar
http://www.secureupload.eu/wu6yxq97vouv/We.Are.What.We.Are.2013.1080p.BluRay.DTS.x264-PublicHD.part04.rar
http://www.secureupload.eu/fbcj7rv51w2g/We.Are.What.We.Are.2013.1080p.BluRay.DTS.x264-PublicHD.part05.rar
http://www.secureupload.eu/1ttna3j34dw4/We.Are.What.We.Are.2013.1080p.BluRay.DTS.x264-PublicHD.part06.rar
http://www.secureupload.eu/tu00yz6159bn/We.Are.What.We.Are.2013.1080p.BluRay.DTS.x264-PublicHD.part07.rar
http://www.secureupload.eu/reijivrou5xf/We.Are.What.We.Are.2013.1080p.BluRay.DTS.x264-PublicHD.part08.rar
http://www.secureupload.eu/80due6mqvh69/We.Are.What.We.Are.2013.1080p.BluRay.DTS.x264-PublicHD.part09.rar
http://www.secureupload.eu/0oodiya53mt7/We.Are.What.We.Are.2013.1080p.BluRay.DTS.x264-PublicHD.part10.rar

[DizzCloud]
 
Član
Učlanjen(a)
21.01.2013
Poruka
1.111
9b6900b054735e7012684ebcde51e566.jpg


We Are What We Are 2013 LIMITED 720p BluRay x264-GECKOS
I.M.D.B INFO
Kod:
www.imdb.com/title/tt2309021/
Runtime: 105 min
Languages: English
Size: 4.38 GB




navz.gif

(All below links are interchangable. No password)

Download From Rapidgator
Kod:
http://rapidgator.net/file/f462dd0d82e3b4daf11ac56d99af83f7/We.Are.What.We.Are.2013.LIMITED.720p.BluRay.x264-GECKOS.part1.rar.html
http://rapidgator.net/file/9c513c177175d761661806eb3f9adb1c/We.Are.What.We.Are.2013.LIMITED.720p.BluRay.x264-GECKOS.part2.rar.html
http://rapidgator.net/file/44fc2b6a36c34aec9afd2b38cf311774/We.Are.What.We.Are.2013.LIMITED.720p.BluRay.x264-GECKOS.part3.rar.html
http://rapidgator.net/file/21b91f93351958041ff21c7f08736045/We.Are.What.We.Are.2013.LIMITED.720p.BluRay.x264-GECKOS.part4.rar.html
http://rapidgator.net/file/e6dcafcf72c62394325d4c5d0accc3f0/We.Are.What.We.Are.2013.LIMITED.720p.BluRay.x264-GECKOS.part5.rar.html

Download From Uploaded
Kod:
http://uploaded.net/file/wy2jfafp/We.Are.What.We.Are.2013.LIMITED.720p.BluRay.x264-GECKOS.part1.rar
http://uploaded.net/file/7yhtzkub/We.Are.What.We.Are.2013.LIMITED.720p.BluRay.x264-GECKOS.part2.rar
http://uploaded.net/file/63436hfp/We.Are.What.We.Are.2013.LIMITED.720p.BluRay.x264-GECKOS.part3.rar
http://uploaded.net/file/xd4mbqh4/We.Are.What.We.Are.2013.LIMITED.720p.BluRay.x264-GECKOS.part4.rar
http://uploaded.net/file/ie3g9np1/We.Are.What.We.Are.2013.LIMITED.720p.BluRay.x264-GECKOS.part5.rar

Download From Secureupload
Kod:
http://www.secureupload.eu/9ggpi0hrl4bl/We.Are.What.We.Are.2013.LIMITED.720p.BluRay.x264-GECKOS.part1.rar
http://www.secureupload.eu/ik1gn4jos5w7/We.Are.What.We.Are.2013.LIMITED.720p.BluRay.x264-GECKOS.part2.rar
http://www.secureupload.eu/5ygzqjyjtl75/We.Are.What.We.Are.2013.LIMITED.720p.BluRay.x264-GECKOS.part3.rar
http://www.secureupload.eu/xizdex9yuufv/We.Are.What.We.Are.2013.LIMITED.720p.BluRay.x264-GECKOS.part4.rar
http://www.secureupload.eu/k4e1k7867zr8/We.Are.What.We.Are.2013.LIMITED.720p.BluRay.x264-GECKOS.part5.rar

[DizzCloud]
 
Član
Učlanjen(a)
21.01.2013
Poruka
1.111
f1b7c328522cbb077059d3b0c6e85547.jpg


We Are What We Are (2013) 1080p BluRay x264-YIFY
I.M.D.B INFO
Kod:
http://www.imdb.com/title/tt2309021/
Language: English
1h 45mn | 1920 x 804 | x264 - 2 227 Kbps | 23.976 fps | AAC - 93.8 Kbps | 1.64 GiB
Genre: Drama | Horror | Thriller

A seemingly wholesome and benevolent family, the Parkers have always kept to themselves, and for good reason. Behind closed doors, patriarch Frank rules his family with a rigorous fervor, determined to keep his ancestral customs intact at any cost. As a torrential rainstorm moves into the area, tragedy strikes and his daughters Iris and Rose are forced to assume responsibilities that extend beyond those of a typical family. As the unrelenting downpour continues to flood their small town, the local authorities begin to uncover clues that bring them closer to the secret that the Parkers have held closely for so many years.



SCREENSHOTS

22737b11181d738824f030e5fa1757cf.jpg



navz.gif

(All below links are interchangable. No password)

Download From Rapidgator
Kod:
http://rapidgator.net/file/b49e5744c66af029e12d80575b7c0eb5/We.Are.What.We.Are.2013.1080p.BluRay.x264.YIFY.part1.rar.html
http://rapidgator.net/file/a3dc9ff34e4bb19bc22e92fab7768251/We.Are.What.We.Are.2013.1080p.BluRay.x264.YIFY.part2.rar.html
http://rapidgator.net/file/59298af28634abc331497d2bf0a40d82/We.Are.What.We.Are.2013.1080p.BluRay.x264.YIFY.part3.rar.html
http://rapidgator.net/file/f4daf0d164a950d51f6de5fa11b2b128/We.Are.What.We.Are.2013.1080p.BluRay.x264.YIFY.part4.rar.html

Download From Uploaded
Kod:
http://uploaded.net/file/yn5oe9v8/We.Are.What.We.Are.2013.1080p.BluRay.x264.YIFY.part1.rar
http://uploaded.net/file/qya46q18/We.Are.What.We.Are.2013.1080p.BluRay.x264.YIFY.part2.rar
http://uploaded.net/file/2m1h35il/We.Are.What.We.Are.2013.1080p.BluRay.x264.YIFY.part3.rar
http://uploaded.net/file/vyahcl9b/We.Are.What.We.Are.2013.1080p.BluRay.x264.YIFY.part4.rar

Download From Secureupload
Kod:
http://www.secureupload.eu/hajao17y3wfw/We.Are.What.We.Are.2013.1080p.BluRay.x264.YIFY.part1.rar
http://www.secureupload.eu/ipl7airdp077/We.Are.What.We.Are.2013.1080p.BluRay.x264.YIFY.part2.rar
http://www.secureupload.eu/qcrqpg4p77ge/We.Are.What.We.Are.2013.1080p.BluRay.x264.YIFY.part3.rar
http://www.secureupload.eu/n14r0k2vni8w/We.Are.What.We.Are.2013.1080p.BluRay.x264.YIFY.part4.rar

[DizzCloud]
 
Učlanjen(a)
28.09.2013
Poruka
122
=
We Are What We Are (2013) LIMITED 720p BluRay x264-GECKOS
File Size: 4.37 GiB

=

2CKwhli.jpg


Title: We Are What We Are
Year: 2013
Genre: Drama, Horror, Thriller
Rating: 6.1 (638 votes)
Runtime: 1 h 45 min
Director: Jim Mickle
Cast: Bill Sage, Ambyr Childers, Julia Garner, Wyatt Russell
Plot:
Kod:
The Parkers, a reclusive family who follow ancient customs, find their secret existence threatened as a torrential downpour moves into their area, forcing daughters Iris and Rose to assume responsibilities beyond those of a typical family.
General
Complete name : We.Are.What.We.Are.2013.LIMITED.720p.BluRay.x264-GECKOS.mkv
Format : Matroska
Format version : Version 4 / Version 2
File size : 4.37 GiB
Duration : 1h 45mn
Overall bit rate : 5 944 Kbps
Encoded date : UTC 2013-10-23 14:31:34
Writing application : mkvmerge v6.2.0 ('Promised Land') built on Apr 28 2013 12:22:01
Writing library : libebml v1.3.0 + libmatroska v1.4.0

Video
ID : 1
Format : AVC
Format/Info : Advanced Video Codec
Format profile : High@L4.1
Format settings, CABAC : Yes
Format settings, ReFrames : 5 frames
Codec ID : V_MPEG4/ISO/AVC
Duration : 1h 45mn
Bit rate : 4 437 Kbps
Width : 1 280 pixels
Height : 536 pixels
Display aspect ratio : 2.40:1
Frame rate mode : Constant
Frame rate : 23.976 fps
Color space : YUV
Chroma subsampling : 4:2:0
Bit depth : 8 bits
Scan type : Progressive
Bits/(Pixel*Frame) : 0.270
Stream size : 3.17 GiB (73%)
Title : X264
Writing library : x264 core 133 r2334 a3ac64b
Language : English
Default : Yes
Forced : No

Audio
ID : 2
Format : DTS
Format/Info : Digital Theater Systems
Mode : 16
Format settings, Endianness : Big
Codec ID : A_DTS
Duration : 1h 45mn
Bit rate mode : Constant
Bit rate : 1 509 Kbps
Channel(s) : 6 channels
Channel positions : Front: L C R, Side: L R, LFE
Sampling rate : 48.0 KHz
Bit depth : 24 bits
Compression mode : Lossy
Stream size : 1.11 GiB (25%)
Title : DTS
Language : English
Default : Yes
Forced : No

Imdb Url:

Kod:
http://www.imdb.com/title/tt2309021/
Movie Trailer:

Kod:
http://www.youtube.com/watch?v=KXKogr0O-Zc
vlcsnap-2013-10-27-10h40.png


vlcsnap-2013-10-27-10h43.png


vlcsnap-2013-10-27-10h44.png




DOWNLOAD:

Kod:
http://uploaded.net/file/4rz7ifdd/Gec.Wawwa.720.part1.rar
http://uploaded.net/file/h5aenyn2/Gec.Wawwa.720.part2.rar
http://uploaded.net/file/rhebt5yu/Gec.Wawwa.720.part3.rar
http://uploaded.net/file/718bwao7/Gec.Wawwa.720.part4.rar
http://uploaded.net/file/azc96p2g/Gec.Wawwa.720.part5.rar

http://rapidgator.net/file/c18ab344ceba6fa872172c58101ce941/Gec.Wawwa.720.part1.rar.html
http://rapidgator.net/file/ad1992567dbde6caee4d54ce75e4cbc9/Gec.Wawwa.720.part2.rar.html
http://rapidgator.net/file/e44b92e13dd24dac9890612df8bfbd34/Gec.Wawwa.720.part3.rar.html
http://rapidgator.net/file/5a0fef7e02f2675f90ecd6adc729c772/Gec.Wawwa.720.part4.rar.html
http://rapidgator.net/file/c200d564635bfbe781d474d307a974b7/Gec.Wawwa.720.part5.rar.html

http://netload.in/dateiP6BteTzVTH/Gec.Wawwa.720.part1.rar.htm
http://netload.in/dateiB7KTCnXvCj/Gec.Wawwa.720.part2.rar.htm
http://netload.in/dateiO6aqoIRPzk/Gec.Wawwa.720.part3.rar.htm
http://netload.in/dateinBnF1IofT3/Gec.Wawwa.720.part4.rar.htm
http://netload.in/dateisrLY8igmbe/Gec.Wawwa.720.part5.rar.htm

http://lumfile.com/cxnlylb1j24e/Gec.Wawwa.720.part1.rar.html
http://lumfile.com/kqpkw2bk7rt2/Gec.Wawwa.720.part2.rar.html
http://lumfile.com/18sbm1gg4fpx/Gec.Wawwa.720.part3.rar.html
http://lumfile.com/oo787k73bn6h/Gec.Wawwa.720.part4.rar.html
http://lumfile.com/zt9xkbzgclgy/Gec.Wawwa.720.part5.rar.html
 
Učlanjen(a)
28.09.2013
Poruka
122
=
We Are What We Are (2013) LIMITED 720p BluRay x264-GECKOS
File Size: 4.37 GiB

=

2CKwhli.jpg


Title: We Are What We Are
Year: 2013
Genre: Drama, Horror, Thriller
Rating: 6.1 (638 votes)
Runtime: 1 h 45 min
Director: Jim Mickle
Cast: Bill Sage, Ambyr Childers, Julia Garner, Wyatt Russell
Plot:
Kod:
The Parkers, a reclusive family who follow ancient customs, find their secret existence threatened as a torrential downpour moves into their area, forcing daughters Iris and Rose to assume responsibilities beyond those of a typical family.
General
Complete name : We.Are.What.We.Are.2013.LIMITED.720p.BluRay.x264-GECKOS.mkv
Format : Matroska
Format version : Version 4 / Version 2
File size : 4.37 GiB
Duration : 1h 45mn
Overall bit rate : 5 944 Kbps
Encoded date : UTC 2013-10-23 14:31:34
Writing application : mkvmerge v6.2.0 ('Promised Land') built on Apr 28 2013 12:22:01
Writing library : libebml v1.3.0 + libmatroska v1.4.0

Video
ID : 1
Format : AVC
Format/Info : Advanced Video Codec
Format profile : High@L4.1
Format settings, CABAC : Yes
Format settings, ReFrames : 5 frames
Codec ID : V_MPEG4/ISO/AVC
Duration : 1h 45mn
Bit rate : 4 437 Kbps
Width : 1 280 pixels
Height : 536 pixels
Display aspect ratio : 2.40:1
Frame rate mode : Constant
Frame rate : 23.976 fps
Color space : YUV
Chroma subsampling : 4:2:0
Bit depth : 8 bits
Scan type : Progressive
Bits/(Pixel*Frame) : 0.270
Stream size : 3.17 GiB (73%)
Title : X264
Writing library : x264 core 133 r2334 a3ac64b
Language : English
Default : Yes
Forced : No

Audio
ID : 2
Format : DTS
Format/Info : Digital Theater Systems
Mode : 16
Format settings, Endianness : Big
Codec ID : A_DTS
Duration : 1h 45mn
Bit rate mode : Constant
Bit rate : 1 509 Kbps
Channel(s) : 6 channels
Channel positions : Front: L C R, Side: L R, LFE
Sampling rate : 48.0 KHz
Bit depth : 24 bits
Compression mode : Lossy
Stream size : 1.11 GiB (25%)
Title : DTS
Language : English
Default : Yes
Forced : No

Imdb Url:

Kod:
http://www.imdb.com/title/tt2309021/
Movie Trailer:

Kod:
http://www.youtube.com/watch?v=KXKogr0O-Zc
vlcsnap-2013-10-27-10h40.png


vlcsnap-2013-10-27-10h43.png


vlcsnap-2013-10-27-10h44.png




DOWNLOAD:

Kod:
http://uploaded.net/file/4rz7ifdd/Gec.Wawwa.720.part1.rar
http://uploaded.net/file/h5aenyn2/Gec.Wawwa.720.part2.rar
http://uploaded.net/file/rhebt5yu/Gec.Wawwa.720.part3.rar
http://uploaded.net/file/718bwao7/Gec.Wawwa.720.part4.rar
http://uploaded.net/file/azc96p2g/Gec.Wawwa.720.part5.rar

http://rapidgator.net/file/c18ab344ceba6fa872172c58101ce941/Gec.Wawwa.720.part1.rar.html
http://rapidgator.net/file/ad1992567dbde6caee4d54ce75e4cbc9/Gec.Wawwa.720.part2.rar.html
http://rapidgator.net/file/e44b92e13dd24dac9890612df8bfbd34/Gec.Wawwa.720.part3.rar.html
http://rapidgator.net/file/5a0fef7e02f2675f90ecd6adc729c772/Gec.Wawwa.720.part4.rar.html
http://rapidgator.net/file/c200d564635bfbe781d474d307a974b7/Gec.Wawwa.720.part5.rar.html

http://netload.in/dateiP6BteTzVTH/Gec.Wawwa.720.part1.rar.htm
http://netload.in/dateiB7KTCnXvCj/Gec.Wawwa.720.part2.rar.htm
http://netload.in/dateiO6aqoIRPzk/Gec.Wawwa.720.part3.rar.htm
http://netload.in/dateinBnF1IofT3/Gec.Wawwa.720.part4.rar.htm
http://netload.in/dateisrLY8igmbe/Gec.Wawwa.720.part5.rar.htm

http://lumfile.com/cxnlylb1j24e/Gec.Wawwa.720.part1.rar.html
http://lumfile.com/kqpkw2bk7rt2/Gec.Wawwa.720.part2.rar.html
http://lumfile.com/18sbm1gg4fpx/Gec.Wawwa.720.part3.rar.html
http://lumfile.com/oo787k73bn6h/Gec.Wawwa.720.part4.rar.html
http://lumfile.com/zt9xkbzgclgy/Gec.Wawwa.720.part5.rar.html
 
Član
Učlanjen(a)
09.05.2011
Poruka
7.549
=
We Are What We Are (2013) 720p BluRay DTS x264-RUXi
File Size: 6.00 GiB

=

weare.png


Title: We Are What We Are
Year: 2013
Genre: Drama, Horror, Thriller
Rating: 6.1 (638 votes)
Runtime: 1 h 45 min
Director: Jim Mickle
Cast: Bill Sage, Ambyr Childers, Julia Garner, Wyatt Russell
Plot:
Kod:
The Parkers, a reclusive family who follow ancient customs, find their secret existence threatened as a torrential downpour moves into their area, forcing daughters Iris and Rose to assume responsibilities beyond those of a typical family.


General
Complete name : We Are What We Are 2013 720p BluRay DTS x264-RUXi.mkv
Format : Matroska
Format version : Version 2
File size : 6.00 GiB
Duration : 1h 45mn
Overall bit rate : 8 165 Kbps
Movie name : We Are What We Are 2013 720p BluRay DTS x264-RUXi
Encoded date : UTC 2013-11-01 07:27:37
Writing application : mkvmerge v6.2.0 ('Promised Land') built on Apr 28 2013 12:22:01
Writing library : libebml v1.3.0 + libmatroska v1.4.0

Video
ID : 1
Format : AVC
Format/Info : Advanced Video Codec
Format profile : High@L4.1
Format settings, CABAC : Yes
Format settings, ReFrames : 8 frames
Codec ID : V_MPEG4/ISO/AVC
Duration : 1h 45mn
Bit rate : 6 644 Kbps
Width : 1 280 pixels
Height : 534 pixels
Display aspect ratio : 2.40:1
Frame rate mode : Constant
Frame rate : 23.976 fps
Color space : YUV
Chroma subsampling : 4:2:0
Bit depth : 8 bits
Scan type : Progressive
Bits/(Pixel*Frame) : 0.405
Stream size : 4.77 GiB (80%)
Writing library : x264 core 129 r2245 bc13772
Default : Yes
Forced : No

Audio
ID : 2
Format : DTS
Format/Info : Digital Theater Systems
Mode : 16
Format settings, Endianness : Big
Codec ID : A_DTS
Duration : 1h 45mn
Bit rate mode : Constant
Bit rate : 1 509 Kbps
Channel count : 6 channels
Channel positions : Front: L C R, Side: L R, LFE
Sampling rate : 48.0 KHz
Bit depth : 24 bits
Compression mode : Lossy
Stream size : 1.11 GiB (18%)
Language : English
Default : Yes
Forced : No

Imdb Url:
Kod:
[url="http://www.imdb.com/title/tt2309021/"]We Are What We Are (2013) - IMDb[/url]
Movie Trailer:
Kod:
[media=youtube]KXKogr0O-Zc[/media]


weare.png


DOWNLOAD:
Kod:
[url="http://uploaded.net/file/4g5bd1om/WeAreWhatWeAre.2013.720p.part1.rar"]WeAreWhatWeAre.2013.720p.pa…rar (1,00 GB) - uploaded.net[/url]
[url="http://uploaded.net/file/1sqj4fx2/WeAreWhatWeAre.2013.720p.part2.rar"]WeAreWhatWeAre.2013.720p.pa…rar (1,00 GB) - uploaded.net[/url]
[url="http://uploaded.net/file/ddlue5iy/WeAreWhatWeAre.2013.720p.part3.rar"]WeAreWhatWeAre.2013.720p.pa…rar (1,00 GB) - uploaded.net[/url]
[url="http://uploaded.net/file/yl1nkf2x/WeAreWhatWeAre.2013.720p.part4.rar"]WeAreWhatWeAre.2013.720p.pa…rar (1,00 GB) - uploaded.net[/url]
[url="http://uploaded.net/file/ttlhgr4j/WeAreWhatWeAre.2013.720p.part5.rar"]WeAreWhatWeAre.2013.720p.pa…rar (1,00 GB) - uploaded.net[/url]
[url="http://uploaded.net/file/wgi5mm73/WeAreWhatWeAre.2013.720p.part6.rar"]WeAreWhatWeAre.2013.720p.pa…rar (1.021,09 MB) - uploaded.net[/url]

[url="http://rapidgator.net/file/07f4c96f61aebd7053ec04b14824e7ba/WeAreWhatWeAre.2013.720p.part1.rar.html"]Download file WeAreWhatWeAre.2013.720p.part1.rar[/url]
[url="http://rapidgator.net/file/fd6f2b9071e9fcabbdb5a5272532a856/WeAreWhatWeAre.2013.720p.part2.rar.html"]Download file WeAreWhatWeAre.2013.720p.part2.rar[/url]
[url="http://rapidgator.net/file/2009d29842df951aa6dff0fc97b54827/WeAreWhatWeAre.2013.720p.part3.rar.html"]Download file WeAreWhatWeAre.2013.720p.part3.rar[/url]
[url="http://rapidgator.net/file/5825a1cdb54292b9ec7496c524751a01/WeAreWhatWeAre.2013.720p.part4.rar.html"]Download file WeAreWhatWeAre.2013.720p.part4.rar[/url]
[url="http://rapidgator.net/file/8e55b4ce2653647a2280695eae4193d2/WeAreWhatWeAre.2013.720p.part5.rar.html"]Download file WeAreWhatWeAre.2013.720p.part5.rar[/url]
[url="http://rapidgator.net/file/7aee9496d9adefb644c571794d2e833e/WeAreWhatWeAre.2013.720p.part6.rar.html"]Download file WeAreWhatWeAre.2013.720p.part6.rar[/url]

[url="http://ryushare.com/96jktjrsrkl4/WeAreWhatWeAre.2013.720p.part1.rar"]RyuShare.com - Free Online Storage[/url]
[url="http://ryushare.com/8nxo4aor3tm5/WeAreWhatWeAre.2013.720p.part2.rar"]RyuShare.com - Free Online Storage[/url]
[url="http://ryushare.com/sj45zq8w0dd2/WeAreWhatWeAre.2013.720p.part3.rar"]RyuShare.com - Free Online Storage[/url]
[url="http://ryushare.com/m12v1z8v2t0v/WeAreWhatWeAre.2013.720p.part4.rar"]RyuShare.com - Free Online Storage[/url]
[url="http://ryushare.com/3baxswxdif7a/WeAreWhatWeAre.2013.720p.part5.rar"]RyuShare.com - Free Online Storage[/url]
[url="http://ryushare.com/lsyq3xs3fu0d/WeAreWhatWeAre.2013.720p.part6.rar"]RyuShare.com - Free Online Storage[/url]

[url="http://fileparadox.in/visqq6gn1avm/WeAreWhatWeAre.2013.720p.part1.rar"]Download Are What WeAre 2013 720p part1 rar[/url]
[url="http://fileparadox.in/6kh99bu9vc6s/WeAreWhatWeAre.2013.720p.part2.rar"]Download Are What WeAre 2013 720p part2 rar[/url]
[url="http://fileparadox.in/hl1sam1ibgv3/WeAreWhatWeAre.2013.720p.part3.rar"]Download Are What WeAre 2013 720p part3 rar[/url]
[url="http://fileparadox.in/lcw35uwssbzs/WeAreWhatWeAre.2013.720p.part4.rar"]Download Are What WeAre 2013 720p part4 rar[/url]
[url="http://fileparadox.in/o6fpfpkkiztd/WeAreWhatWeAre.2013.720p.part5.rar"]Download Are What WeAre 2013 720p part5 rar[/url]
[url="http://fileparadox.in/7z8z43ukitvz/WeAreWhatWeAre.2013.720p.part6.rar"]Download Are What WeAre 2013 720p part6 rar[/url]

DOWNLOAD SINGL LINKS:
Kod:

I HAVE BACKUP, DONT WORRY ABOUT DEAD LINKS, PLEASE SEND ME PM, AND I WILL REUP ANY LINK


tnx.jpg
 
Top