Šta je novo?

Wallace and Gromit in The Curse of the Were-Rabbit (2005)

ADMINISTRATOR
Učlanjen(a)
11.10.2009
Poruka
63.646
Wallace & Gromit in The Curse of the Were-Rabbit (2005)

DVDRip



8ed5a4.jpg




imdbq.gif

Kod:
http://www.imdb.com/title/tt0312004/ 
[RIGHT][COLOR=white][B] [/B][/COLOR][/RIGHT]



General
Complete name: Wallace.and.Gromit.in.The.Curse.of.the.Were-Rabbit.2005.DVDRip.avi
Format : AVI
Format/Info: Audio Video Interleave
File size: 700 MiB
Duration : 1h 24mn
Overall bit rate : 1 156 Kbps


Video
ID : 0
Format : MPEG-4 Visual
Codec ID : DX50
Codec ID/Hint: DivX 5
Duration : 1h 24mn
Bit rate : 955 Kbps
Width: 552 pixels
Height : 296 pixels
Display aspect ratio : 1.865
Frame rate : 23.976 fps
Color space: YUV
Chroma subsampling : 4:2:0
Bit depth: 8 bits
Scan type: Progressive
Compression mode : Lossy
Bits/(Pixel*Frame) : 0.244
Stream size: 578 MiB (83%)
Writing library: XviD 1.0.3 (UTC 2004-12-20)

Audio
ID : 1
Format : AC-3
Format/Info: Audio Coding 3
Mode extension : CM (complete main)
Codec ID : 2000
Duration : 1h 24mn
Bit rate mode: Constant
Bit rate : 192 Kbps
Channel(s) : 2 channels
Channel positions: Front: L R
Sampling rate: 48.0 KHz
Bit depth: 16 bits
Compression mode : Lossy
Stream size: 116 MiB (17%)
Alignment: Split accross interleaves
Interleave, duration : 42 ms (1.00 video frame)
Interleave, preload duration : 500 ms




wallaceandgromitinthecu.jpg



Kod:
http://www.fileserve.com/file/dgrSRBR/Wallace.and.Gromit.in.The.Curse.of.the.Were-Rabbit.2005.DVDRip.avi
or
http://www.filesonic.com/file/2831329475/Wallace.and.Gromit.in.The.Curse.of.the.Were-Rabbit.2005.DVDRip.avi
or
http://www.wupload.com/file/1745123711/Wallace.and.Gromit.in.The.Curse.of.the.Were-Rabbit.2005.DVDRip.avi
or
http://ul.to/pbdxn8lc/Wallace.and.Gromit.in.The.Curse.of.the.Were-Rabbit.2005.DVDRip.avi
or
http://www.uploadstation.com/file/26NsyxT/Wallace.and.Gromit.in.The.Curse.of.the.Were-Rabbit.2005.DVDRip.avi


Kod:
http://www.megaupload.com/?d=5HF3VGGA        Wallace.and.Gromit.in.The.Curse.of.the.Were-Rabbit.2005.DVDRip.part1.rar
http://www.megaupload.com/?d=TN3ISWGW        Wallace.and.Gromit.in.The.Curse.of.the.Were-Rabbit.2005.DVDRip.part2.rar
http://www.megaupload.com/?d=JZ80NHBG        Wallace.and.Gromit.in.The.Curse.of.the.Were-Rabbit.2005.DVDRip.part3.rar
http://www.megaupload.com/?d=SR7F5PUA        Wallace.and.Gromit.in.The.Curse.of.the.Were-Rabbit.2005.DVDRip.part4.rar
http://www.megaupload.com/?d=SLY6LAXF        Wallace.and.Gromit.in.The.Curse.of.the.Were-Rabbit.2005.DVDRip.part5.rar
http://www.megaupload.com/?d=BZE6Q5SI        Wallace.and.Gromit.in.The.Curse.of.the.Were-Rabbit.2005.DVDRip.part6.rar
http://www.megaupload.com/?d=XJM0ISPG        Wallace.and.Gromit.in.The.Curse.of.the.Were-Rabbit.2005.DVDRip.part7.rar
http://www.megaupload.com/?d=19DD6Q7X        Wallace.and.Gromit.in.The.Curse.of.the.Were-Rabbit.2005.DVDRip.part8.rar

Single Links | No Extraction | No Pass | Enjoy
 
Top