Šta je novo?
Učlanjen(a)
25.11.2013
Poruka
298
WALL-E (2008) 1080p BluRay - HD1080

6cb_SDs6.jpg


WALL_E_1080p_Blu_Ray_x264_HD1080.jpg


General
Complete name : files/hd1080-walle.mkv
Format : Matroska
Format version : Version 1
File size : 7.95 GiB
Duration : 1h 37mn
Overall bit rate : 11.7 Mbps
Encoded date : UTC 2008-11-11 12:56:27
Writing application : mkvmerge v2.2.0 ('Turn It On Again') built on Mar 4 2008 12:58:26
Writing library : libebml v0.7.7 + libmatroska v0.8.1

Video
ID : 1
Format : AVC
Format/Info : Advanced Video Codec
Format profile : [email protected]
Format settings, CABAC : Yes
Format settings, ReFrames : 4 frames
Codec ID : V_MPEG4/ISO/AVC
Duration : 1h 37mn
Bit rate : 10.2 Mbps
Width : 1 920 pixels
Height : 800 pixels
Display aspect ratio : 2.40:1
Frame rate : 23.976 fps
Color space : YUV
Chroma subsampling : 4:2:0
Bit depth : 8 bits
Scan type : Progressive
Bits/(Pixel*Frame) : 0.276
Stream size : 6.76 GiB (85%)
Language : English
Default : Yes
Forced : No

Audio
ID : 2
Format : DTS
Format/Info : Digital Theater Systems
Format profile : ES
Codec ID : A_DTS
Duration : 1h 37mn
Bit rate mode : Constant
Bit rate : 1 510 Kbps
Channel(s) : 6 channels
Channel positions : Front: L C R, Side: L R, LFE
Sampling rate : 48.0 KHz
Bit depth : 24 bits
Compression mode : Lossy
Stream size : 1.03 GiB (13%)
Language : English
Default : Yes
Forced : No

Text
ID : 3
Format : UTF-8
Codec ID : S_TEXT/UTF8
Codec ID/Info : UTF-8 Plain Text
Language : English
Default : Yes
Forced : No


imdb
Kod:
http://www.imdb.com/title/tt0910970/

subtitles
Kod:
http://www.all4divx.com/subtitles/WALL+E+%282008%29+1080p/any/1

download
Kod:
http://ul.to/5ez54ds0
http://ul.to/dchmnx0y
http://ul.to/99ai8dtz
http://ul.to/4l7nwz06
http://ul.to/xmool6cx
http://ul.to/odic0nza
http://ul.to/aao7fxf2
http://ul.to/eiui0j37
http://ul.to/e1znws8v
http://ul.to/f2sel7ez
 
Top