Šta je novo?

Walking on Sunshine (2014)

Član
Učlanjen(a)
09.05.2011
Poruka
7.549
************************************************************
Walking on Sunshine (2014) 1080p BluRay x264 ROVERS
File Size: 6.55 GiB

************************************************************

walkin.jpg


INFO:
Kod:
General
Complete name                            : WAKIN1080.mkv
Format                                   : Matroska
Format version                           : Version 4 / Version 2
File size                                : 6.55 GiB
Duration                                 : 1h 37mn
Overall bit rate                         : 9 666 Kbps
Encoded date                             : UTC 2014-10-18 04:01:21
Writing application                      : mkvmerge v6.2.0 ('Promised Land') built on Apr 28 2013 12:22:01
Writing library                          : libebml v1.3.0 + libmatroska v1.4.0

Video
ID                                       : 1
Format                                   : AVC
Format/Info                              : Advanced Video Codec
Format profile                           : [email protected]
Format settings, CABAC                   : Yes
Format settings, ReFrames                : 5 frames
Codec ID                                 : V_MPEG4/ISO/AVC
Duration                                 : 1h 37mn
Bit rate                                 : 8 904 Kbps
Width                                    : 1 920 pixels
Height                                   : 808 pixels
Display aspect ratio                     : 2.40:1
Frame rate mode                          : Constant
Frame rate                               : 24.000 fps
Color space                              : YUV
Chroma subsampling                       : 4:2:0
Bit depth                                : 8 bits
Scan type                                : Progressive
Bits/(Pixel*Frame)                       : 0.239
Stream size                              : 5.90 GiB (90%)
Writing library                          : x264 core 142 r2479 dd79a61
Language                                 : English
Default                                  : Yes
Forced                                   : No

Audio
ID                                       : 2
Format                                   : DTS
Format/Info                              : Digital Theater Systems
Mode                                     : 16
Format settings, Endianness              : Big
Codec ID                                 : A_DTS
Duration                                 : 1h 37mn
Bit rate mode                            : Constant
Bit rate                                 : 768 Kbps
Channel(s)                               : 6 channels
Channel positions                        : Front: L C R, Side: L R, LFE
Sampling rate                            : 48.0 KHz
Bit depth                                : 24 bits
Compression mode                         : Lossy
Stream size                              : 533 MiB (8%)
Language                                 : English
Default                                  : Yes
Forced                                   : No

iMDB:
Kod:
http://www.imdb.com/title/tt2107861/

wakin1080preview.png


Single Extraction | No Password | Interchangeable Links: | Working 100% |

Kod:
http://rapidgator.net/file/7e86830c081004b1cd5db1c77f3f15cb/WAKIN1080.part1.rar.html
http://rapidgator.net/file/26f28bedc84e4982c53dcf2dac799b6b/WAKIN1080.part2.rar.html
http://rapidgator.net/file/812a5b089842e6c1e84cafcaa5e0422f/WAKIN1080.part3.rar.html
http://rapidgator.net/file/3393d4ed84a762e536637b312d13872f/WAKIN1080.part4.rar.html
http://rapidgator.net/file/be9e74b9057166a3579055e48e599e4f/WAKIN1080.part5.rar.html

http://uploaded.net/file/09ltw9vy/WAKIN1080.part1.rar
http://uploaded.net/file/u5alxk8s/WAKIN1080.part2.rar
http://uploaded.net/file/4f2hpec5/WAKIN1080.part3.rar
http://uploaded.net/file/6ld3ic5q/WAKIN1080.part4.rar
http://uploaded.net/file/w2dsee27/WAKIN1080.part5.rar

http://k2s.cc/file/e61e31a240cf1/WAKIN1080.part1.rar
http://k2s.cc/file/b73d888fdca84/WAKIN1080.part2.rar
http://k2s.cc/file/7dd256f642454/WAKIN1080.part3.rar
http://k2s.cc/file/01b9e2fd83ee4/WAKIN1080.part4.rar
http://k2s.cc/file/6feeecb819b8e/WAKIN1080.part5.rar

http://xerver.co/cuuy2rl1ujiq/WAKIN1080.part1.rar
http://xerver.co/6nz5xnw5k4jj/WAKIN1080.part2.rar
http://xerver.co/54vckysbuy96/WAKIN1080.part3.rar
http://xerver.co/28x7zhhlm380/WAKIN1080.part4.rar
http://xerver.co/8n4ozddd054g/WAKIN1080.part5.rar
 
Član
Učlanjen(a)
19.08.2010
Poruka
228
Walking on Sunshine 2014 720p Bluray x264-ROVERS

tHoZL.jpg


Kod:
  Date......: 17.10.2014
  Video.....: X264 @ 5676Kbps
  FPS.......: 24.000
  Resolution: 1280x536
  Size......: 4470MB (4687624104 Bytes)
  Audio.....: DTS 768Kbps 6ch
  Language..: English
  Subtitles.: English
  Runtime...: 1h 37mn

  URL.......: http://www.imdb.com/title/tt2107861

Kod:
http://uploaded.net/file/o93qlh3g/WOS21472pBRx264ROVERS.part2.rar
http://uploaded.net/file/w0ltdtp0/WOS21472pBRx264ROVERS.part3.rar
http://uploaded.net/file/nqgfwmi7/WOS21472pBRx264ROVERS.part4.rar
http://uploaded.net/file/8gb8sq7w/WOS21472pBRx264ROVERS.part1.rar
http://uploaded.net/file/lor0np0n/WOS21472pBRx264ROVERS.part5.rar


Walking on Sunshine 2014 1080p Bluray x264-ROVERS

tHoZL.jpg


Kod:
  Date......: 17.10.2014
  Video.....: X264 @ 8904Kbps
  FPS.......: 24.000
  Resolution: 1920x808
  Size......: 6707MB (7032983813 Bytes)
  Audio.....: DTS 768Kbps 6ch
  Language..: English
  Subtitles.: English
  Runtime...: 1h 37mn

  URL.......: http://www.imdb.com/title/tt2107861

Kod:
http://uploaded.net/file/ujvrmhhn/WOS21418pBRx264ROVERS.part4.rar
http://uploaded.net/file/yjz5k4j1/WOS21418pBRx264ROVERS.part3.rar
http://uploaded.net/file/worlgheb/WOS21418pBRx264ROVERS.part6.rar
http://uploaded.net/file/ctyrmgf9/WOS21418pBRx264ROVERS.part5.rar
http://uploaded.net/file/4n9h06i0/WOS21418pBRx264ROVERS.part7.rar
http://uploaded.net/file/gn4cs7fe/WOS21418pBRx264ROVERS.part2.rar
http://uploaded.net/file/g3hylbcm/WOS21418pBRx264ROVERS.part1.rar
 
Top