Šta je novo?
Član
Učlanjen(a)
02.03.2013
Poruka
3.108
Walk of Shame 2014 BDRip XviD 2CD-SMC

54331653957339723782.jpg


Kod:
General
Complete name                            : Walk.of.Shame.2014.BDRip.XviD.2CD-SMC.avi
Format                                   : AVI
Format/Info                              : Audio Video Interleave
File size                                : 1.37 GiB
Duration                                 : 1h 34mn
Overall bit rate                         : 2 078 Kbps
Writing application                      : VirtualDubMod 1.5.10.3 | www.virtualdub-fr.org || (build 2550/release)
Writing library                          : VirtualDubMod build 2550/release

Video
ID                                       : 0
Format                                   : MPEG-4 Visual
Format profile                           : Advanced [email protected]
Format settings, BVOP                    : 2
Format settings, QPel                    : No
Format settings, GMC                     : No warppoints
Format settings, Matrix                  : Default (H.263)
Muxing mode                              : Packed bitstream
Codec ID                                 : XVID
Codec ID/Hint                            : XviD
Duration                                 : 1h 34mn
Bit rate                                 : 1 620 Kbps
Width                                    : 720 pixels
Height                                   : 302 pixels
Display aspect ratio                     : 2.40:1
Frame rate                               : 23.976 fps
Color space                              : YUV
Chroma subsampling                       : 4:2:0
Bit depth                                : 8 bits
Scan type                                : Progressive
Compression mode                         : Lossy
Bits/(Pixel*Frame)                       : 0.311
Stream size                              : 1.07 GiB (78%)
Writing library                          : XviD 65

Audio
ID                                       : 1
Format                                   : AC-3
Format/Info                              : Audio Coding 3
Mode extension                           : CM (complete main)
Format settings, Endianness              : Big
Codec ID                                 : 2000
Duration                                 : 1h 34mn
Bit rate mode                            : Constant
Bit rate                                 : 448 Kbps
Channel(s)                               : 6 channels
Channel positions                        : Front: L C R, Side: L R, LFE
Sampling rate                            : 48.0 KHz
Bit depth                                : 16 bits
Compression mode                         : Lossy
Stream size                              : 303 MiB (22%)
Alignment                                : Split accross interleaves
Interleave, duration                     : 42 ms (1.00 video frame)
Interleave, preload duration             : 500 ms

SOURCE: Retail BluRay

SUBS INCLUDED: English and Spanish in SRT format

8y_Es_GGcw.png


AM9_Usa_Nh.png


Xw53sej6.png


If U Like My Post Willing To Buy Premium For High Speed Resumable downloads Pls BuY Premium From This Links

Kod:
http://rapidgator.net/file/2d4b612122456a8f8dfc79267b569d68/Walk_of_Shame_2014_BDRip_XviD_2CD_SMC.avi.html

http://k2s.cc/file/97fe88097010f/Walk_of_Shame_2014_BDRip_XviD_2CD_SMC.avi

http://fileom.com/l08uiigx5j7h/Walk_of_Shame_2014_BDRip_XviD_2CD_SMC.avi.html


 
Top