Šta je novo?

Vrhovi Zelengore aka The Peaks of Zelengore (1976)

  • Začetnik teme Wolf 13
  • Datum pokretanja
Wolf 13

Wolf 13

MODERATOR
Učlanjen(a)
10.10.2009
Poruka
13.278
Vrhovi Zelengore (1976) DVDrip DD5.1 x264 by Wolf
(MKV) HQ



Kod:
  https://www.imdb.com/title/tt0075407/
General
Unique ID : 84471015491038418342226713995790961356 (0x3F8C869BEC5572DD67A845BB4F92CACC)
Complete name : Vrhovi Zelengore (1976) DVDrip DD5.1 x264 by Wolf.mkv
Format : Matroska
Format version : Version 4
File size : 1.16 GiB
Duration : 1 h 37 min
Overall bit rate : 1 696 kb/s
Encoded date : UTC 2019-02-15 13:58:16
Writing application : mkvmerge v31.0.0 ('Dolores In A Shoestand') 64-bit
Writing library : libebml v1.3.6 + libmatroska v1.4.9 / Lavf58.20.100

Video
ID : 1
Format : AVC
Format/Info : Advanced Video Codec
Format profile : [email protected]
Format settings : CABAC / 16 Ref Frames
Format settings, CABAC : Yes
Format settings, ReFrames : 16 frames
Codec ID : V_MPEG4/ISO/AVC
Duration : 1 h 37 min
Bit rate : 1 600 kb/s
Width : 696 pixels
Height : 572 pixels
Display aspect ratio : 16:9
Original display aspect rat : 1.298
Frame rate mode : Constant
Frame rate : 25.000 FPS
Color space : YUV
Chroma subsampling : 4:2:0
Bit depth : 8 bits
Scan type : Progressive
Bits/(Pixel*Frame) : 0.161
Stream size : 1.09 GiB (94%)
Title : Vrhovi Zelengore (1976)
Writing library : x264 core 157 r2935 545de2f
Encoding settings : cabac=1 / ref=16 / deblock=1:-1:-1 / analyse=0x3:0x133 / me=umh / subme=10 / psy=1 / psy_rd=1.00:0.15 / mixed_ref=1 / me_range=24 / chroma_me=1 / trellis=2 / 8x8dct=1 / cqm=0 / deadzone=21,11 / fast_pskip=1 / chroma_qp_offset=-3 / threads=6 / lookahead_threads=1 / sliced_threads=0 / nr=0 / decimate=1 / interlaced=0 / bluray_compat=0 / constrained_intra=0 / bframes=8 / b_pyramid=2 / b_adapt=2 / b_bias=0 / direct=3 / weightb=1 / open_gop=0 / weightp=2 / keyint=250 / keyint_min=25 / scenecut=40 / intra_refresh=0 / rc_lookahead=60 / rc=2pass / mbtree=1 / bitrate=1600 / ratetol=1.0 / qcomp=0.60 / qpmin=0 / qpmax=69 / qpstep=4 / cplxblur=20.0 / qblur=0.5 / vbv_maxrate=300000 / vbv_bufsize=300000 / nal_hrd=none / filler=0 / ip_ratio=1.40 / aq=1:1.00
Language : Serbian
Default : Yes
Forced : No
Color range : Limited
Color primaries : BT.601 PAL
Transfer characteristics : BT.709
Matrix coefficients : BT.601

Audio
ID : 2
Format : E-AC-3
Format/Info : Enhanced AC-3
Commercial name : Dolby Digital Plus
Codec ID : A_EAC3
Duration : 1 h 37 min
Bit rate mode : Constant
Bit rate : 256 kb/s
Channel(s) : 6 channels
Channel layout : L R C LFE Ls Rs
Sampling rate : 48.0 kHz
Frame rate : 31.250 FPS (1536 SPF)
Compression mode : Lossy
Stream size : 67.3 MiB (6%)
Title : Vrhovi Zelengore (1976)
Language : Serbian
Service kind : Complete Main
Default : Yes
Forced : No

Text
ID : 3
Format : UTF-8
Codec ID : S_TEXT/UTF8
Codec ID/Info : UTF-8 Plain Text
Duration : 1 h 35 min
Bit rate : 4 b/s
Count of elements : 118
Stream size : 3.17 KiB (0%)
Title : VRHOVI ZELENGORE
Language : Serbian
Default : Yes
Forced : No

Hidden content
You need to react to this post in order to see this content.

Hidden content
You need to react to this post in order to see this content.

 
Top