Šta je novo?
SerbianForum

Dobrodošli na SerbianForum.org, mjesto na kojem možete pronaći apsolutno sve, mjesto druženja i odlične zabave!

Visnja na Tasmajdanu (1968)

  • Začetnik teme Torrent Maniak
  • Datum pokretanja
Torrent Maniak

Torrent Maniak

MODERATOR
Višnja na Tašmajdanu (1968)









General
Complete name : G:\Domaci filmovi\Velimir Bata Zivjinovic\1961 - 1970\32 Višnja na Tašmajdanu (1968)\Visnja.Na.Tasmajdanu.1968.avi
Format : AVI
Format/Info : Audio Video Interleave
File size : 698 MiB
Duration : 1 h 22 min
Overall bit rate : 1 181 kb/s
Movie name : Visnja.Na.Tasmajdanu.1968
Director : www.xusite.com
Writing application : MediaCoder 0.6
Copyright : www.xusite.com
Comment : www.xusite.com

Video
ID : 0
Format : MPEG-4 Visual
Format profile : Simple@L3
Format settings, BVOP : No
Format settings, QPel : No
Format settings, GMC : No warppoints
Format settings, Matrix : Default (H.263)
Codec ID : XVID
Codec ID/Hint : XviD
Duration : 1 h 22 min
Bit rate : 1 040 kb/s
Width : 640 pixels
Height : 480 pixels
Display aspect ratio : 1.935
Original display aspect rat : 4:3
Frame rate : 25.000 FPS
Color space : YUV
Chroma subsampling : 4:2:0
Bit depth : 8 bits
Scan type : Progressive
Compression mode : Lossy
Bits/(Pixel*Frame) : 0.135
Stream size : 615 MiB (88%)
Writing library : XviD 1.2.0.dev47 (UTC 2006-11-01)

Audio
ID : 1
Format : MPEG Audio
Format version : Version 1
Format profile : Layer 3
Format settings : Joint stereo / MS Stereo
Codec ID : 55
Codec ID/Hint : MP3
Duration : 1 h 22 min
Bit rate mode : Constant
Bit rate : 128 kb/s
Channel(s) : 2 channels
Sampling rate : 48.0 kHz
Compression mode : Lossy
Stream size : 75.7 MiB (11%)
Alignment : Aligned on interleaves
Interleave, duration : 24 ms (0.60 video frame)
Interleave, preload duratio : 504 ms
Writing library : LAME3.97
Language : Undefined








Višnja na Tašmajdanu je jugoslovenski film iz 1968. godine. Režirao ga je Stole Janković, koji je napisao i scenario zajedno sa Sinišom Pavićem

Priča o rađanju jedne ljubavi između dvoje mladih, o njenom trajanju, sa svim teškoćama i lepotama koje ona nosi sa sobom, o gašenju te ljubavi usled sukoba sa prenaglašenom dinamikom i lažnim vrednostima savrmenog života.



















Hidden content
You need to react to this post in order to see this content.

 
Poslednja izmena:
Top