Šta je novo?

Viking The Berserkers (2014)

Član
Učlanjen(a)
09.05.2011
Poruka
7.549
************************************************************
Viking The Berserkers (2014) 1080p BluRay x264-SONiDO
File Size: 6.56 GiB

************************************************************

viking.jpg


INFO:
Kod:
General
Complete name                            : G:\sonido-vtb-1080p\sonido-vtb-1080p.mkv
Format                                   : Matroska
Format version                           : Version 2
File size                                : 6.56 GiB
Duration                                 : 1h 35mn
Overall bit rate                         : 9 848 Kbps
Encoded date                             : UTC 2014-09-19 16:15:39
Writing application                      : mkvmerge v7.0.0 ('Where We Going') 32bit built on Jun  9 2014 15:08:34
Writing library                          : libebml v1.3.0 + libmatroska v1.4.1
DURATION                                 : 01:35:18.635000000

Video
ID                                       : 1
Format                                   : AVC
Format/Info                              : Advanced Video Codec
Format profile                           : [email protected]
Format settings, CABAC                   : Yes
Format settings, ReFrames                : 5 frames
Codec ID                                 : V_MPEG4/ISO/AVC
Duration                                 : 1h 35mn
Bit rate                                 : 9 078 Kbps
Width                                    : 1 920 pixels
Height                                   : 800 pixels
Display aspect ratio                     : 2.40:1
Frame rate mode                          : Constant
Frame rate                               : 23.976 fps
Color space                              : YUV
Chroma subsampling                       : 4:2:0
Bit depth                                : 8 bits
Scan type                                : Progressive
Bits/(Pixel*Frame)                       : 0.247
Stream size                              : 5.91 GiB (90%)
Writing library                          : x264 core 142 r2453 ea0ca51
Language                                 : English
Default                                  : Yes
Forced                                   : No

Audio
ID                                       : 2
Format                                   : DTS
Format/Info                              : Digital Theater Systems
Mode                                     : 16
Format settings, Endianness              : Big
Codec ID                                 : A_DTS
Duration                                 : 1h 35mn
Bit rate mode                            : Constant
Bit rate                                 : 768 Kbps
Channel(s)                               : 6 channels
Channel positions                        : Front: L C R, Side: L R, LFE
Sampling rate                            : 48.0 KHz
Bit depth                                : 24 bits
Compression mode                         : Lossy
Delay relative to video                  : 300ms
Stream size                              : 524 MiB (8%)
Language                                 : English
Default                                  : Yes
Forced                                   : No

iMDB:
Kod:
http://www.imdb.com/title/tt3451956/

vlcsnap-2014-09-20-06h47.png


vlcsnap-2014-09-20-06h47.png


vlcsnap-2014-09-20-06h47.png


Single Extraction | No Password | Interchangeable Links: | Working 100% |

Kod:
http://rapidgator.net/file/18efa86bbba936262ff3e54b7692fbc0/VTB.1080.S0NiD0.part1.rar.html
http://rapidgator.net/file/aa235afd3f1e09f02eeba53e77b19514/VTB.1080.S0NiD0.part2.rar.html
http://rapidgator.net/file/0786d5af4d2c6f1dd74ebd16114ce2c7/VTB.1080.S0NiD0.part3.rar.html
http://rapidgator.net/file/663f4273eee269d52b29bc037f547fcb/VTB.1080.S0NiD0.part4.rar.html
http://rapidgator.net/file/7137533586d82a090a1722e826d5bff4/VTB.1080.S0NiD0.part5.rar.html
http://rapidgator.net/file/26eeb9e3338ac86e16575c845db277e0/VTB.1080.S0NiD0.part6.rar.html
http://rapidgator.net/file/d09ac45c63b362265521f275e96110a8/VTB.1080.S0NiD0.part7.rar.html

http://uploaded.net/file/kxkzhppi/VTB.1080.S0NiD0.part1.rar
http://uploaded.net/file/hpklw15c/VTB.1080.S0NiD0.part2.rar
http://uploaded.net/file/yyttfwf7/VTB.1080.S0NiD0.part3.rar
http://uploaded.net/file/tgla7dgg/VTB.1080.S0NiD0.part4.rar
http://uploaded.net/file/esnswpdj/VTB.1080.S0NiD0.part5.rar
http://uploaded.net/file/3jx40eap/VTB.1080.S0NiD0.part6.rar
http://uploaded.net/file/hbw9c5nn/VTB.1080.S0NiD0.part7.rar

http://xerver.co/ptmf5ct4c2d4/VTB.1080.S0NiD0.part1.rar
http://xerver.co/f3hbq5gh0zv5/VTB.1080.S0NiD0.part2.rar
http://xerver.co/rmndego2926r/VTB.1080.S0NiD0.part3.rar
http://xerver.co/mluiksb432dh/VTB.1080.S0NiD0.part4.rar
http://xerver.co/4q53amjth1m4/VTB.1080.S0NiD0.part5.rar
http://xerver.co/a906uvelqtrr/VTB.1080.S0NiD0.part6.rar
http://xerver.co/b5t44kkz9mvi/VTB.1080.S0NiD0.part7.rar

https://www.oboom.com/UKUGMC1B/VTB.1080.S0NiD0.part1.rar
https://www.oboom.com/33ZHOLWL/VTB.1080.S0NiD0.part2.rar
https://www.oboom.com/NDUYNGJK/VTB.1080.S0NiD0.part3.rar
https://www.oboom.com/4AGIJLWU/VTB.1080.S0NiD0.part4.rar
https://www.oboom.com/F8VFQQPQ/VTB.1080.S0NiD0.part5.rar
https://www.oboom.com/W820362P/VTB.1080.S0NiD0.part6.rar
https://www.oboom.com/FX4RDOCR/VTB.1080.S0NiD0.part7.rar
 
Top