Šta je novo?

Video Game High School (2012)

Član
Učlanjen(a)
09.05.2011
Poruka
7.549
Video Game High School (2012) 720p BluRay DTS x264-PHD
File Size: 5.58 GiB


videogame.jpg


General
Complete name : video.game.high.school.2012.720p.bluray.dts.x264-publichd.mkv
Format : Matroska
Format version : Version 2
File size : 5.58 GiB
Duration : 2h 4mn
Overall bit rate : 6 433 Kbps
Encoded date : UTC 2013-01-12 09:17:57
Writing application : mkvmerge v5.8.0 ('No Sleep / Pillow') built on Sep 2 2012 15:37:04
Writing library : libebml v1.2.3 + libmatroska v1.3.0

Video
ID : 1
Format : AVC
Format/Info : Advanced Video Codec
Format profile : [email protected]
Format settings, CABAC : Yes
Format settings, ReFrames : 5 frames
Codec ID : V_MPEG4/ISO/AVC
Duration : 2h 4mn
Bit rate : 5 000 Kbps
Width : 1 280 pixels
Height : 720 pixels
Display aspect ratio : 16:9
Frame rate mode : Constant
Frame rate : 23.976 fps
Color space : YUV
Chroma subsampling : 4:2:0
Bit depth : 8 bits
Scan type : Progressive
Bits/(Pixel*Frame) : 0.226
Stream size : 4.16 GiB (75%)
Writing library : x264 core 129 r2230 1cffe9f
Language : English
Default : Yes
Forced : No

Audio
ID : 2
Format : DTS
Format/Info : Digital Theater Systems
Mode : 16
Format settings, Endianness : Big
Codec ID : A_DTS
Duration : 2h 4mn
Bit rate mode : Constant
Bit rate : 1 509 Kbps
Channel(s) : 2 channels
Channel positions : Front: L R
Sampling rate : 48.0 KHz
Bit depth : 24 bits
Compression mode : Lossy
Stream size : 1.31 GiB (23%)
Language : English
Default : Yes
Forced : No

Kod:
http://www.imdb.com/title/tt2170584/

vlcsnap-2013-01-12-12h54.png


vlcsnap-2013-01-12-12h54.png


vlcsnap-2013-01-12-12h55.png



DOWNLOAD:
Kod:
http://rapidgator.net/file/70172749/Vid3O.Gam3.High.720p.part1.rar.html
http://rapidgator.net/file/70172757/Vid3O.Gam3.High.720p.part2.rar.html
http://rapidgator.net/file/70172806/Vid3O.Gam3.High.720p.part3.rar.html
http://rapidgator.net/file/70172810/Vid3O.Gam3.High.720p.part4.rar.html
http://rapidgator.net/file/70173082/Vid3O.Gam3.High.720p.part5.rar.html
http://rapidgator.net/file/70172964/Vid3O.Gam3.High.720p.part6.rar.html

http://uploaded.net/file/r6d6antc/Vid3O.Gam3.High.720p.part1.rar
http://uploaded.net/file/jjqreqcq/Vid3O.Gam3.High.720p.part2.rar
http://uploaded.net/file/jyfdqtwf/Vid3O.Gam3.High.720p.part3.rar
http://uploaded.net/file/8vhu7gjq/Vid3O.Gam3.High.720p.part4.rar
http://uploaded.net/file/r333oz9i/Vid3O.Gam3.High.720p.part5.rar
http://uploaded.net/file/p45v7cx8/Vid3O.Gam3.High.720p.part6.rar
 
Poslednja izmena od urednika:
Top