Šta je novo?
SerbianForum

Dobrodošli na SerbianForum.org, mjesto na kojem možete pronaći apsolutno sve, mjesto druženja i odlične zabave!

Victor Frankenstein (2015)

  • Začetnik teme Angelus
  • Datum pokretanja
Angelus

Angelus

ADMINISTRATOR


http://www.imdb.com/title/tt1976009/

Victor Frankenstein {2015} CAM XVID MP3-MURD3R

Format : AVI
Format/Info : Audio Video Interleave
File size : 1.38 GiB
Duration : 1h 43mn
Overall bit rate : 1 913 Kbps
Writing library : VirtualDub build 35491/release

Video
ID : 0
Format : MPEG-4 Visual
Format profile : Advanced Simple@L5
Format settings, BVOP : 2
Format settings, QPel : No
Format settings, GMC : No warppoints
Format settings, Matrix : Default (H.263)
Muxing mode : Packed bitstream
Codec ID : XVID
Codec ID/Hint : XviD
Duration : 1h 43mn
Bit rate : 1 775 Kbps
Width : 620 pixels
Height : 280 pixels
Display aspect ratio : 2.2:1
Frame rate : 25.000 fps
Color space : YUV
Chroma subsampling : 4:2:0
Bit depth : 8 bits
Scan type : Progressive
Compression mode : Lossy
Bits/(Pixel*Frame) : 0.409
Stream size : 1.28 GiB (93%)
Writing library : XviD 67

Audio : UnKnOwN...TY
ID : 1
Format : MPEG Audio
Format version : Version 1
Format profile : Layer 3
Codec ID : 55
Codec ID/Hint : MP3
Duration : 1h 43mn
Bit rate mode : Constant
Bit rate : 128 Kbps
Channel(s) : 2 channels
Sampling rate : 48.0 KHz
Compression mode : Lossy
Stream size : 94.6 MiB (7%)
Alignment : Split accross interleaves
Interleave, duration : 40 ms (1.00 video frame)
Interleave, preload duratio : 500 ms




1.4 GB

cam


Kod:
[URL="http://extratorrent.cc/download/4561545/Victor+Frankenstein+%7B2015%7D+CAM+XVID+MP3-MURD3R.torrent"]TORRENT[/URL]
 
Angelus

Angelus

ADMINISTRATOR


RELEASE: Victor.Frankenstein.2015.HDRip.XviD.AC3-EVO

SOURCE: iTunes (RU) - Thanks friend!

ViDEO: 1600 kbps XviD

RESOLUTiON: 720x304

RUNTiME: 1h50m33sec

SUBTiTLES: English (.srt)

AUDiO: 192 CBR AC-3 2.0

LANGUAGE: ENGLiSH

GREETS: Srkfan & AQOS

NOTES: Enjoy.

http://www.imdb.com/title/tt1976009/


Told from Igor's perspective, we see the troubled young assistant's dark origins, his redemptive friendship with the young medical student Viktor Von Frankenstein, and become eyewitnesses to the emergence of how Frankenstein became the man - and the legend - we know today.








1.4 GB
Kod:
[URL=" http://extratorrent.cc/download/4716726/Victor.Frankenstein.2015.HDRip.XviD.AC3-EVO.torrent "]TORRENT[/URL]
 
Angelus

Angelus

ADMINISTRATOR




Told from Igor\'s perspective, we see the troubled young assistant\'s dark origins, his redemptive friendship with the young medical student Viktor Von Frankenstein, and become eyewitnesses to the emergence of how Frankenstein became the man - and the legend - we know today.



Daniel Radcliffe :... Igor
Jessica Brown Findlay :... Lorelei
Bronson Webb :... Rafferty
James McAvoy :... Victor Frankenstein




Video:-

Format : MP4 / x264 / High@L4.1
Duration : 01:50:25
Bitrate : 1000 Kbps
Resolution = (Width/Height) : 1280x528 pixels
Frame Rate : 23,976 fps

Audio:-

Format : AAC
Bitrate : 96 Kbps
Channels : 2 Channels
Sample Rate : 48 KHz
Language : English

Release info:-

Encoded/Released By : Ozlem / ETRG
Title/Year : Victor Frankenstein / 2015
File Size : 827 MiB
Genre : Drama, Horror, Sci-Fi
Source : Victor.Frankenstein.2015.1080p.WEB-DL.H264.AC3-EVO (Thank You)
Subtitles : N/A
IMDB : http://www.imdb.com/title/tt1976009/





830 MB
Hidden content
You need to react to this post in order to see this content.
 
Top