Šta je novo?

Varljivo leto '68 aka The Elusive Summer of '68 (1984)

  • Začetnik teme Wolf 13
  • Datum pokretanja
Wolf 13

Wolf 13

MODERATOR
Učlanjen(a)
10.10.2009
Poruka
13.278
Varljivo leto '68 (1984) 1080p RTS Remastered DD5.1 x264 by Wolf
(MKV)



Kod:
  https://www.imdb.com/title/tt0088338/
General
Unique ID : 104233299321809852933459446637864564276 (0x4E6A9A6DB6FDC21DABCD3E15D81E3634)
Complete name : Varljivo leto '68 (1984) 1080p RTS Remastered DD5.1 x264 by Wolf.mkv
Format : Matroska
Format version : Version 4
File size : 1.06 GiB
Duration : 1 h 26 min
Overall bit rate : 1 757 kb/s
Encoded date : UTC 2019-01-21 18:12:08
Writing application : mkvmerge v30.1.0 ('Forever And More') 64-bit
Writing library : libebml v1.3.6 + libmatroska v1.4.9 / Lavf58.20.100

Video
ID : 1
Format : AVC
Format/Info : Advanced Video Codec
Format profile : [email protected]
Format settings : CABAC / 8 Ref Frames
Format settings, CABAC : Yes
Format settings, ReFrames : 8 frames
Codec ID : V_MPEG4/ISO/AVC
Duration : 1 h 25 min
Bit rate : 1 500 kb/s
Width : 1 900 pixels
Height : 1 076 pixels
Display aspect ratio : 16:9
Original display aspect rat : 16:9
Frame rate mode : Constant
Frame rate : 25.000 FPS
Color space : YUV
Chroma subsampling : 4:2:0
Bit depth : 8 bits
Scan type : Progressive
Bits/(Pixel*Frame) : 0.029
Stream size : 923 MiB (85%)
Title : Varljivo leto '68 (1984)
Writing library : x264 core 157 r2935 545de2f
Encoding settings : cabac=1 / ref=8 / deblock=1:-1:-1 / analyse=0x3:0x133 / me=umh / subme=9 / psy=1 / psy_rd=1.00:0.15 / mixed_ref=1 / me_range=16 / chroma_me=1 / trellis=2 / 8x8dct=1 / cqm=0 / deadzone=21,11 / fast_pskip=1 / chroma_qp_offset=-3 / threads=6 / lookahead_threads=1 / sliced_threads=0 / nr=0 / decimate=1 / interlaced=0 / bluray_compat=0 / constrained_intra=0 / bframes=3 / b_pyramid=2 / b_adapt=2 / b_bias=0 / direct=3 / weightb=1 / open_gop=0 / weightp=2 / keyint=250 / keyint_min=25 / scenecut=40 / intra_refresh=0 / rc_lookahead=60 / rc=2pass / mbtree=1 / bitrate=1500 / ratetol=1.0 / qcomp=0.60 / qpmin=0 / qpmax=69 / qpstep=4 / cplxblur=20.0 / qblur=0.5 / vbv_maxrate=300000 / vbv_bufsize=300000 / nal_hrd=none / filler=0 / ip_ratio=1.40 / aq=1:1.00
Language : Serbian
Default : Yes
Forced : No
Color range : Limited
Color primaries : BT.709
Transfer characteristics : BT.709
Matrix coefficients : BT.709

Audio
ID : 2
Format : E-AC-3
Format/Info : Enhanced AC-3
Commercial name : Dolby Digital Plus
Codec ID : A_EAC3
Duration : 1 h 26 min
Bit rate mode : Constant
Bit rate : 256 kb/s
Channel(s) : 6 channels
Channel layout : L R C LFE Ls Rs
Sampling rate : 48.0 kHz
Frame rate : 31.250 FPS (1536 SPF)
Compression mode : Lossy
Delay relative to video : -1 s 5 ms
Stream size : 157 MiB (15%)
Title : Varljivo leto '68 (1984)
Language : Serbian
Service kind : Complete Main
Default : Yes
Forced : No

Hidden content
You need to react to this post in order to see this content.



...Hvala parabolicxtc
 
Nikola096

Nikola096

Učlanjen(a)
13.12.2012
Poruka
327
Varljivo leto '68 (1984) - Restaurirana verzija 1080p



U leto 1968. godine, maturant Petar stasava za ljubav, zaljubljujuci se naizmenicno i istovremeno uvise zena, uglavnom onih zrelih i udatih: pekarku, bibliotekarku, obe cerke predsednika suda, svojuprofesorku sociologije, zbog koje za maturski rad uzima temu iz marksizma. Potreba da konacnonadje "zenu svog zivota" dovodi Petra u niz delikatnih i komicnih situacija i izbezumljuje njegovog oca, opstinskog sudiju, ustogljenog coveka dogmatskih shvatanja, koji veruje da se omladina mozevaspitavati samo "cvrstom rukom". Kada konacno nadje pravu, istinsku i veliku ljubav, ona ce izodredjenih, tada drustveno aktuelnih zbivanja, biti prekinuta.





Hidden content
You need to react to this post in order to see this content.
 
Poslednja izmena od urednika:
vragolancica

vragolancica

UREDNIK
Učlanjen(a)
22.06.2009
Poruka
2.487

U leto 1968, maturant Petar stasava za ljubav i na svoju sreću ili nesreću - zaljubljuje se istovremeno u više žena, uglavnom udatih: pekarku, bibliotekarku, svoju profesorku sociologije, zbog koje za maturski rad uzima temu iz marksizma.
Potreba da konačno nađe "ženu svog života" vodi Petra u mnoge delikatne i komične situacije i izbezumljuje njegovog oca, opštinskog sudiju, čoveka dogmatskih shvatanja, koji veruje da se omladina može vaspitavati samo "čvrstom rukom".
Petra ne interesuju naizgled prelomni istorijski događaji (studentski protest 1968), koji kao daleki eho dospeva i do njegove varošice.
Kada konačno pronađe pravu ljubav, ona će, iz aktuelnih društvenih razloga, biti prekinuta. Maturant Petar naglo će sazreti uz saznanje da dva tako različita pojma, ljubav i politika, mogu biti ponekad i sudbinski povezana.​

Uloge: Slavko Štimac, Danilo-Bata Stojković, Mira Banjac, Mija Aleksić, Neda Arnerić, Sanja Vejnović, Dragan Zarić, Andrijana Videnović, Branko Cvejić, Milutin Butković, Žika Milenković, Milenko Pavlov, Branka Petrić, Miodrag Radovanović, Dara Čalenić i drugi.



Hidden content
You need to reply to this thread or react to this post in order to see this content.
Pass: serbianforum​
 
Top