Šta je novo?
Član
Učlanjen(a)
09.05.2011
Poruka
7.549
************************************************************
Vampire U (2013) 720p BluRay AC3 x264 TimBer
File Size: 4.30 GiB

************************************************************

vamphd.jpg


INFO:

General
Complete name : Vampire.U.2013.720p.BluRay.AC3.x264-TimBer.mkv
Format : Matroska
Format version : Version 2
File size : 4.30 GiB
Duration : 1h 36mn
Overall bit rate : 6 401 Kbps
Encoded date : UTC 2014-04-14 15:32:18
Writing application : mkvmerge v6.5.0 ('Isn't she lovely') built on Oct 20 2013 12:50:05
Writing library : libebml v1.3.0 + libmatroska v1.4.1

Video
ID : 1
Format : AVC
Format/Info : Advanced Video Codec
Format profile : [email protected]
Format settings, CABAC : Yes
Format settings, ReFrames : 4 frames
Codec ID : V_MPEG4/ISO/AVC
Duration : 1h 36mn
Bit rate : 5 951 Kbps
Width : 1 280 pixels
Height : 720 pixels
Display aspect ratio : 16:9
Frame rate mode : Constant
Frame rate : 23.976 fps
Color space : YUV
Chroma subsampling : 4:2:0
Bit depth : 8 bits
Scan type : Progressive
Bits/(Pixel*Frame) : 0.269
Stream size : 3.91 GiB (91%)
Writing library : x264 core 138 r2358 9e941d1
Default : Yes
Forced : No

Audio
ID : 2
Format : AC-3
Format/Info : Audio Coding 3
Mode extension : CM (complete main)
Format settings, Endianness : Big
Codec ID : A_AC3
Duration : 1h 36mn
Bit rate mode : Constant
Bit rate : 448 Kbps
Channel(s) : 6 channels
Channel positions : Front: L C R, Side: L R, LFE
Sampling rate : 48.0 KHz
Bit depth : 16 bits
Compression mode : Lossy
Stream size : 308 MiB (7%)
Language : English
Default : Yes
Forced : No

iMDB:
Kod:
http://www.imdb.com/title/tt1727885/

vampire.png


Single Extraction | No Password | Interchangeable Links: | Working 100% |

Kod:
http://uploaded.net/file/27cc3p75/Vamp1ReU13.720p.TimBer.part1.rar
http://uploaded.net/file/tr0rzxkh/Vamp1ReU13.720p.TimBer.part2.rar
http://uploaded.net/file/0n30he6l/Vamp1ReU13.720p.TimBer.part3.rar
http://uploaded.net/file/jfwnzo3h/Vamp1ReU13.720p.TimBer.part4.rar
http://uploaded.net/file/yt3f5eb9/Vamp1ReU13.720p.TimBer.part5.rar

http://rapidgator.net/file/77ab1e289faa6436b0e8e4e4d8eaf707/Vamp1ReU13.720p.TimBer.part1.rar.html
http://rapidgator.net/file/c4acba687b96292383645c35ca06c4d8/Vamp1ReU13.720p.TimBer.part2.rar.html
http://rapidgator.net/file/449cacf67a3a267a3c6df018da847f2c/Vamp1ReU13.720p.TimBer.part3.rar.html
http://rapidgator.net/file/d74379f75d711b110e6db4498e2e3215/Vamp1ReU13.720p.TimBer.part4.rar.html
http://rapidgator.net/file/30130625e2b3f79f902693dca2822c2f/Vamp1ReU13.720p.TimBer.part5.rar.html

http://k2s.cc/file/f9511f73f5c52/Vamp1ReU13.720p.TimBer.part1.rar
http://k2s.cc/file/06d7649484cd9/Vamp1ReU13.720p.TimBer.part2.rar
http://k2s.cc/file/f990f791b0272/Vamp1ReU13.720p.TimBer.part3.rar
http://k2s.cc/file/0d47d3af027d0/Vamp1ReU13.720p.TimBer.part4.rar
http://k2s.cc/file/7d18f204ddcec/Vamp1ReU13.720p.TimBer.part5.rar

https://www.oboom.com/828DNG11/Vamp1ReU13.720p.TimBer.part1.rar
https://www.oboom.com/80SKL81E/Vamp1ReU13.720p.TimBer.part2.rar
https://www.oboom.com/CR4CFIHP/Vamp1ReU13.720p.TimBer.part3.rar
https://www.oboom.com/OBT4LZGO/Vamp1ReU13.720p.TimBer.part4.rar
https://www.oboom.com/O3218ORK/Vamp1ReU13.720p.TimBer.part5.rar

DOWNLOAD SINGL LINKS:

Kod:
http://rapidgator.net/file/11c49cf80d959a51fb3353361e7a9ec0/Vamp1ReU13.2GB.part1.rar.html
http://rapidgator.net/file/1b05a290c7a8d217589c008befaa6787/Vamp1ReU13.2GB.part2.rar.html
http://rapidgator.net/file/731f348502abeb8acf05f7249971aacc/Vamp1ReU13.2GB.part3.rar.html

http://uploaded.net/file/89x1ideq/Vamp1ReU13.2GB.part1.rar
http://uploaded.net/file/7e4grr0k/Vamp1ReU13.2GB.part2.rar
http://uploaded.net/file/mvewo38p/Vamp1ReU13.2GB.part3.rar

https://www.oboom.com/MQ44P7OO/Vamp1ReU13.2GB.part1.rar
https://www.oboom.com/G01F1F3U/Vamp1ReU13.2GB.part2.rar
https://www.oboom.com/LEWNV2Z3/Vamp1ReU13.2GB.part3.rar
 
Top