Šta je novo?

Vampire Dentist (2006)

__John__Wayne__
LEGEND
Učlanjen(a)
26.09.2009
Poruka
7.371
Vampire Dentist [2006] DVDRip XViD-SPRiNTER | Single Link

45025781132933831156.jpg


infoh.png


Kod:
http://www.imdb.com/title/tt1151419

──────▄▄▄▄▄███████████████████▄▄▄▄▄──────
────▄██████████▀▀▀▀▀▀▀▀▀▀██████▀████▄────
──▄██▀████████▄─────────────▀▀████─▀██▄──
─▀██▄▄██████████████████▄▄▄─────────▄██▀─
───▀█████████████████████████▄────▄██▀───
─────▀████▀▀▀▀▀▀▀▀▀▀▀▀█████████▄▄██▀─────
───────▀███▄──────────────▀██████▀───────
─────────▀██████▄─────────▄████▀─────────
────────────▀█████▄▄▄▄▄▄▄███▀────────────
──────────────▀████▀▀▀████▀──────────────
────────────────▀███▄███▀────────────────
───────────────────▀█▀───────────────────

Format: AVI
Format/Info: Audio Video Interleave
File size: 701 MiB
Duration: 1h 33mn
Overall bit rate: 1 052 Kbps
Writing application: Nandub v1.0rc2
Writing library: Nandub build 1852/release

Video
ID: 0
Format: MPEG-4 Visual
Format profile: Advanced [email protected]
Format settings, BVOP: No
Format settings, QPel: No
Format settings, GMC: No warppoints
Format settings, Matrix: Default (H.263)
Codec ID: XVID
Codec ID/Hint: XviD
Duration: 1h 33mn
Bit rate: 904 Kbps
Width: 512 pixels
Height: 384 pixels
Display aspect ratio: 4:3
Frame rate: 29.970 fps
Resolution: 8 bits
Colorimetry: 4:2:0
Scan type: Progressive
Bits/(Pixel*Frame): 0.153
Stream size: 602 MiB (86%)
Writing library: XviD 1.1.2 (UTC 2006-11-01)

Audio
ID: 1
Format: MPEG Audio
Format version: Version 1
Format profile: Layer 3
Codec ID: 55
Codec ID/Hint: MP3
Duration: 1h 33mn
Bit rate mode: Variable
Bit rate: 134 Kbps
Minimum bit rate: 40.0 Kbps
Channel(s): 2 channels
Sampling rate: 48.0 KHz
Stream size: 89.5 MiB (13%)
Alignment: Aligned on interleaves
Interleave, duration: 24 ms (0.72 video frame)
Interleave, preload duration: 237 ms
Writing library: LAME3.95
Encoding settings: -m s -V 5 -q 3 -lowpass 17 --vbr-old -b 40

screenshotrm.png


d9d2c8.jpg


downloadoh.png


Kod:
http://www.fileserve.com/file/K3yuK6k/Vampire.Dentist.2006.DVDRip.XViD.SerbianForum.org.avi

passwordk.png


Kod:
No Password
 
Top