Šta je novo?

Vampire Boys (2011)

__John__Wayne__
LEGEND
Učlanjen(a)
26.09.2009
Poruka
7.371
Vampire Boys [2011] DVDRip XviD-SPRiNTER | Single Link

1cbae9.jpg


infoh.png


Kod:
http://www.imdb.com/title/tt1781947

------_____¦¦¦¦¦¦¦¦¦¦¦¦¦¦¦¦¦¦¦_____------
----_¦¦¦¦¦¦¦¦¦¦ŻŻŻŻŻŻŻŻŻŻ¦¦¦¦¦¦Ż¦¦¦¦_----
--_¦¦Ż¦¦¦¦¦¦¦¦_-------------ŻŻ¦¦¦¦-Ż¦¦_--
-Ż¦¦__¦¦¦¦¦¦¦¦¦¦¦¦¦¦¦¦¦¦___---------_¦¦Ż-
---Ż¦¦¦¦¦¦¦¦¦¦¦¦¦¦¦¦¦¦¦¦¦¦¦¦¦_----_¦¦Ż---
-----Ż¦¦¦¦ŻŻŻŻŻŻŻŻŻŻŻŻ¦¦¦¦¦¦¦¦¦__¦¦Ż-----
-------Ż¦¦¦_--------------Ż¦¦¦¦¦¦Ż-------
---------Ż¦¦¦¦¦¦_---------_¦¦¦¦Ż---------
------------Ż¦¦¦¦¦_______¦¦¦Ż------------
--------------Ż¦¦¦¦ŻŻŻ¦¦¦¦Ż--------------
----------------Ż¦¦¦_¦¦¦Ż----------------
-------------------Ż¦Ż-------------------


Vampire.Boys.2011.DVDRip.XviD-SPRiNTER
Subtitles: N/A
Date: 2011.03
Genre: Horror | Romance

Format: AVI
Format/Info: Audio Video Interleave
File size: 699 MiB
Duration: 1h 9mn
Overall bit rate: 1 397 Kbps
Writing application: VirtualDubMod 1.5.10.2 (build 2540/release)
Writing library: VirtualDubMod build 2540/release

Video
ID: 0
Format: MPEG-4 Visual
Format profile: Advanced [email protected]
Format settings, BVOP: 2
Format settings, QPel: No
Format settings, GMC: No warppoints
Format settings, Matrix: Default (H.263)
Codec ID: XVID
Codec ID/Hint: XviD
Duration: 1h 9mn
Bit rate: 1 196 Kbps
Width: 608 pixels
Height: 256 pixels
Display aspect ratio: 2.35:1
Frame rate: 23.976 fps
Color space: YUV
Chroma subsampling: 4:2:0
Bit depth: 8 bits
Scan type: Progressive
Compression mode: Lossy
Bits/(Pixel*Frame): 0.320
Stream size: 599 MiB (86%)
Writing library: XviD 1.1.2 (UTC 2006-11-01)

Audio
ID: 1
Format: AC-3
Format/Info: Audio Coding 3
Mode extension: CM (complete main)
Codec ID: 2000
Duration: 1h 9mn
Bit rate mode: Constant
Bit rate: 192 Kbps
Channel(s): 2 channels
Channel positions: Front: L R
Sampling rate: 48.0 KHz
Bit depth: 16 bits
Compression mode: Lossy
Stream size: 96.1 MiB (14%)
Alignment: Split accross interleaves
Interleave, duration: 42 ms (1.00 video frame)
Interleave, preload duration: 500 ms

screenshotrm.png


b2591e.jpg


downloadoh.png


Kod:
http://www.fileserve.com/file/A7cwJM5/Vampire.Boys.2011.DVDRip.XviD.SerbianForum.org.avi

passwordk.png


Kod:
No Password
 
Član
Učlanjen(a)
30.09.2009
Poruka
12.474



Vampire Boys (2011) DVDRip





Plot: Jasin and his vampire brood’s time is running out. In order for them to survive, Jasin needs to find a mortal to turn into a vampire to spend eternity with…


Genre: Horror
Romance
Director: Charlie Vaughn
IMDB




Vampire Boys (Video 2011) - IMDb



Starring:Christian Ferrer, Jason Lockhart and Dylan Vox



Language: English
Subtitles: N/A

Size: 715.482 MB
Rls NFO: Here


Megaupload

Kod:
http://www.megaupload.com/?d=5HSZDUY2
http://www.megaupload.com/?d=SSSRESIV
http://www.megaupload.com/?d=C1I4BNGX
http://www.megaupload.com/?d=ZMWNQJOO


Mediafire

Kod:
http://www.mediafire.com/?wlw1rdr4pvv6uba
http://www.mediafire.com/?pkxt14k6rjc2ist
http://www.mediafire.com/?pa1pyrbrcc3dffy
http://www.mediafire.com/?26dkwknjk292fj4




Fileserve

Kod:
http://www.fileserve.com/file/gzsRqyS
http://www.fileserve.com/file/EVWSeHc
http://www.fileserve.com/file/za9GWPc
http://www.fileserve.com/file/vRafSsz
 
Poslednja izmena od urednika:
Učlanjen(a)
18.05.2011
Poruka
51
Vampire Boys 2011 DVDRIP AVI

991141.jpg

Vampire Boys 2011 DVDRIP AVI


Language: English
1h 9m | DVDRip | avi | 720 x 320 | XviD @ 1486 Kbps | MP3 @ 128 Kbps | 815 MB
Genres: Horror | Romance
Jasin and his vampire brood's time is running out. In order for them to survive, Jasin needs to find a mortal to turn into a vampire to spend eternity with. Los Angeles provides plenty of young candidates. The brood has their eyes set on Tara, a young, gorgeous blond college student. Tara is open to the idea of becoming a vampire, but someone else enters the picture to disrupt the brood's plans. Caleb, a fresh face college student new to Los Angeles, keeps dreaming of a mysterious stranger. At school, Caleb meets the stranger, Jasin, and they have an instant connection. The problem is that time is short, and Jasin needs to convince Caleb that eternity as a vampire can be a very sweet life.
Kod:
http://www.fileserve.com/file/phvyT9p/Vampire.Boys.2011.DVDRIP-Jaybob.7z.001
http://www.fileserve.com/file/CnAKWEC/Vampire.Boys.2011.DVDRIP-Jaybob.7z.003
http://www.fileserve.com/file/GVRFQ7a/Vampire.Boys.2011.DVDRIP-Jaybob.7z.002
http://www.fileserve.com/file/VVnNSrR/Vampire.Boys.2011.DVDRIP-Jaybob.7z.004
http://www.fileserve.com/file/qvPtjvQ/Vampire.Boys.2011.DVDRIP-Jaybob.7z.005
 
Top