Šta je novo?

Valter brani Sarajevo aka Walter Defends Sarajevo (1972)

  • Začetnik teme tttrojannnn
  • Datum pokretanja
tttrojannnn

tttrojannnn

VIP IPTV
Učlanjen(a)
08.11.2012
Poruka
1.496
Valter brani Sarajevo (1972) TVRip 720p x264-daredule
Remasterizovana verzija




Žanr: Ratni
Režija: Hajrudin Krvavac

U glavnim ulogama: Velimir Bata Živojinović, Rade Marković, Ljubiša Samardžić, Dragomir Gidra Bojanić, Neda Spasojević, Slobodan Dimitrijević, Hanjo Hase, Rolf Remer i drugi.

Opis:
„Valter brani Sarajevo“ je kultni jugoslovenski partizanski film iz 1972. godine. Film predstavlja slobodnu interpretaciju biografije stvarnog antifašističkog borca iz Drugog svetskog rata, Vladimira Perića Valtera.
Sarajevo 1944. godine. Nemačkim armijama u povlačenju očajnički treba gorivo. Valter, zagonetni i harizmatični vođa pokreta otpora može da ugrozi njihove zalihe. Nemci preduzimaju lukav plan da uklone tu prepreku.
Kod:
http://www.imdb.com/title/tt0069452/
Valter.Brani.Sarajevo.1972.TVRip.720p.x264-daredule.mkv
Size: 801846461 bytes (764.70 MiB), duration: 02:09:18, avg.bitrate: 827 kb/s
Audio: aac, 24000 Hz, 5.1, s16 (srp)
Video: h264, yuv420p, 1280x594, 25.00 fps(r) (bos)




Hidden content
You need to react to this post in order to see this content.
 
Poslednja izmena od urednika:
M

maja_jevtic

UREDNIK
Učlanjen(a)
27.06.2011
Poruka
10.058
Valter brani Sarajevo (1972)












:info:








Hidden content
You need to react to this post in order to see this content.

 
Poslednja izmena od urednika:
Wolf 13

Wolf 13

MODERATOR
Učlanjen(a)
10.10.2009
Poruka
13.278
Valter brani Sarajevo (1972) 1080p HDTV DD5.1 x264 by Wolf
(MKV) HQ



Kod:
 https://www.imdb.com/title/tt0069452/
General
Unique ID : 261599976452042503355182030173230699767 (0xC4CE52A3AD12221FE2C8C5B3FBDD94F7)
Complete name : Valter brani Sarajevo (1972) 1080p HDTV DD5.1 x264 by Wolf.mkv
Format : Matroska
Format version : Version 4
File size : 1.67 GiB
Duration : 2 h 8 min
Overall bit rate : 1 858 kb/s
Encoded date : UTC 2020-08-12 19:38:14
Writing application : mkvmerge v49.0.0 ('Sick Of Losing Soulmates') 64-bit
Writing library : libebml v1.4.0 + libmatroska v1.6.1

Video
ID : 1
Format : AVC
Format/Info : Advanced Video Codec
Format profile : [email protected]
Format settings : CABAC / 16 Ref Frames
Format settings, CABAC : Yes
Format settings, Reference : 16 frames
Codec ID : V_MPEG4/ISO/AVC
Duration : 2 h 8 min
Bit rate : 1 600 kb/s
Width : 1 916 pixels
Height : 1 080 pixels
Display aspect ratio : 16:9
Frame rate mode : Constant
Frame rate : 25.000 FPS
Color space : YUV
Chroma subsampling : 4:2:0
Bit depth : 8 bits
Scan type : Progressive
Bits/(Pixel*Frame) : 0.031
Stream size : 1.44 GiB (86%)
Title : Valter brani Sarajevo (1972)
Writing library : x264 core 157 r2935 545de2f
Encoding settings : cabac=1 / ref=16 / deblock=1:-1:-1 / analyse=0x3:0x133 / me=umh / subme=10 / psy=1 / psy_rd=1.00:0.15 / mixed_ref=1 / me_range=24 / chroma_me=1 / trellis=2 / 8x8dct=1 / cqm=0 / deadzone=21,11 / fast_pskip=1 / chroma_qp_offset=-3 / threads=6 / lookahead_threads=1 / sliced_threads=0 / nr=0 / decimate=1 / interlaced=0 / bluray_compat=0 / constrained_intra=0 / bframes=8 / b_pyramid=2 / b_adapt=2 / b_bias=0 / direct=3 / weightb=1 / open_gop=0 / weightp=2 / keyint=250 / keyint_min=25 / scenecut=40 / intra_refresh=0 / rc_lookahead=60 / rc=2pass / mbtree=1 / bitrate=1600 / ratetol=1.0 / qcomp=0.60 / qpmin=0 / qpmax=69 / qpstep=4 / cplxblur=20.0 / qblur=0.5 / vbv_maxrate=300000 / vbv_bufsize=300000 / nal_hrd=none / filler=0 / ip_ratio=1.40 / aq=1:1.00
Language : Bosnian
Default : Yes
Forced : No
Color range : Limited
Color primaries : BT.709
Transfer characteristics : BT.709
Matrix coefficients : BT.709

Audio
ID : 2
Format : E-AC-3
Format/Info : Enhanced AC-3
Commercial name : Dolby Digital Plus
Codec ID : A_EAC3
Duration : 2 h 8 min
Bit rate mode : Constant
Bit rate : 256 kb/s
Channel(s) : 6 channels
Channel layout : L R C LFE Ls Rs
Sampling rate : 48.0 kHz
Frame rate : 31.250 FPS (1536 SPF)
Compression mode : Lossy
Delay relative to video : -5 ms
Stream size : 236 MiB (14%)
Title : Valter brani Sarajevo (1972)
Language : Serbian
Service kind : Complete Main
Default : Yes
Forced : No

Hidden content
You need to react to this post in order to see this content.

Hidden content
You need to react to this post in order to see this content.

 
Top