Šta je novo?

Uzicka Republika aka Guns of War (1974)

  • Začetnik teme Wolf 13
  • Datum pokretanja
Wolf 13

Wolf 13

MODERATOR
Učlanjen(a)
10.10.2009
Poruka
13.278
Uzicka Republika (1974) DVDrip E-AC3 x264 by Wolf
(MKV)



Kod:
 https://www.imdb.com/title/tt0067920/
General
Unique ID : 74758285663020895049084625692537320611 (0x383DEC0E6A17D9C316F6AE197E12F4A3)
Complete name : Uzicka Republika (1974) DVDrip E-AC3 x264 by Wolf.mkv
Format : Matroska
Format version : Version 4 / Version 2
File size : 2.01 GiB
Duration : 2 h 43 min
Overall bit rate : 1 758 kb/s
Encoded date : UTC 2018-10-17 20:59:53 / UTC 2018-10-17T15:52:54Z
Writing application : mkvmerge v27.0.0 ('Metropolis') 64-bit
Writing library : libebml v1.3.6 + libmatroska v1.4.9 / Lavf57.7.2

Video
ID : 1
Format : AVC
Format/Info : Advanced Video Codec
Format profile : High [email protected]
Format settings : CABAC / 5 Ref Frames
Format settings, CABAC : Yes
Format settings, ReFrames : 5 frames
Codec ID : V_MPEG4/ISO/AVC
Duration : 2 h 43 min
Bit rate : 1 500 kb/s
Width : 696 pixels
Height : 344 pixels
Display aspect ratio : 2.2:1
Original display aspect rat : 2.2:1
Frame rate mode : Constant
Frame rate : 25.000 FPS
Color space : YUV
Chroma subsampling : 4:2:0
Bit depth : 10 bits
Scan type : Progressive
Bits/(Pixel*Frame) : 0.251
Stream size : 1.67 GiB (83%)
Title : Uzicka Republika (1974)
Writing library : x264 core 155 r2901 7d0ff22
Encoding settings : cabac=1 / ref=5 / deblock=1:-1:-1 / analyse=0x3:0x113 / me=hex / subme=8 / psy=1 / psy_rd=1.00:0.15 / mixed_ref=1 / me_range=16 / chroma_me=1 / trellis=2 / 8x8dct=1 / cqm=0 / deadzone=21,11 / fast_pskip=1 / chroma_qp_offset=-3 / threads=6 / lookahead_threads=1 / sliced_threads=0 / nr=0 / decimate=1 / interlaced=0 / bluray_compat=0 / constrained_intra=0 / bframes=3 / b_pyramid=2 / b_adapt=1 / b_bias=0 / direct=3 / weightb=1 / open_gop=0 / weightp=2 / keyint=250 / keyint_min=25 / scenecut=40 / intra_refresh=0 / rc_lookahead=50 / rc=2pass / mbtree=1 / bitrate=1500 / ratetol=1.0 / qcomp=0.60 / qpmin=0 / qpmax=81 / qpstep=4 / cplxblur=20.0 / qblur=0.5 / vbv_maxrate=150000 / vbv_bufsize=187500 / nal_hrd=none / filler=0 / ip_ratio=1.40 / aq=1:1.00
Language : Serbian
Default : Yes
Forced : No
Color range : Limited
Color primaries : BT.601 PAL
Transfer characteristics : BT.709
Matrix coefficients : BT.601
Statistics Tags Issue : mkvmerge v27.0.0 ('Metropolis') 64-bit 2018-10-17 20:59:53 / mkvmerge v27.0.0 ('Metropolis') 64-bit 2018-10-17 20:59:53 / UTC 2018-10-17T15:52:54Z
FromStats_BitRate : 1499998
FromStats_Duration : 02:43:29.240000000
FromStats_FrameCount : 245231
FromStats_StreamSize : 1839231264

Audio
ID : 2
Format : E-AC-3
Format/Info : Enhanced Audio Coding 3
Codec ID : A_EAC3
Duration : 2 h 43 min
Bit rate mode : Constant
Bit rate : 256 kb/s
Channel(s) : 6 channels
Channel positions : Front: L C R, Side: L R, LFE
Sampling rate : 48.0 kHz
Frame rate : 187.500 FPS (256 SPF)
Compression mode : Lossy
Stream size : 299 MiB (15%)
Title : Uzicka Republika (1974)
Language : Serbian
Service kind : Complete Main
Default : Yes
Forced : No
Statistics Tags Issue : mkvmerge v27.0.0 ('Metropolis') 64-bit 2018-10-17 20:59:53 / mkvmerge v27.0.0 ('Metropolis') 64-bit 2018-10-17 20:59:53 / UTC 2018-10-17T15:52:54Z
FromStats_BitRate : 256000
FromStats_Duration : 02:43:29.280000000
FromStats_FrameCount : 306540
FromStats_StreamSize : 313896960

Text
ID : 3
Format : UTF-8
Codec ID : S_TEXT/UTF8
Codec ID/Info : UTF-8 Plain Text
Title : UŽIČKA REPUBLIKA
Language : Serbian
Default : Yes
Forced : No
Statistics Tags Issue : mkvmerge v27.0.0 ('Metropolis') 64-bit 2018-10-17 20:59:53 / mkvmerge v27.0.0 ('Metropolis') 64-bit 2018-10-17 20:59:53 / UTC 2018-10-17T15:52:54Z
FromStats_BitRate : 6
FromStats_Duration : 02:30:46.000000000
FromStats_FrameCount : 176
FromStats_StreamSize : 6852

Hidden content
You need to react to this post in order to see this content.

 
Top