Šta je novo?

Under The Skin (2013)

Član
Učlanjen(a)
09.05.2011
Poruka
7.549
************************************************************
Under The Skin (2013) BRRip XviD AC3 eXceSs
File Size: 1.40 GiB

************************************************************

undershe.jpg


INFO:
Kod:
General
Complete name                            : excess-xvid-uts.avi
Format                                   : AVI
Format/Info                              : Audio Video Interleave
File size                                : 1.40 GiB
Duration                                 : 1h 48mn
Overall bit rate                         : 1 849 Kbps
Writing application                      : VirtualDubMod 1.5.10.2 (build 2540/release)
Writing library                          : VirtualDubMod build 2540/release

Video
ID                                       : 0
Format                                   : MPEG-4 Visual
Format profile                           : Advanced [email protected]
Format settings, BVOP                    : 2
Format settings, QPel                    : No
Format settings, GMC                     : No warppoints
Format settings, Matrix                  : Default (H.263)
Muxing mode                              : Packed bitstream
Codec ID                                 : XVID
Codec ID/Hint                            : XviD
Duration                                 : 1h 48mn
Bit rate                                 : 1 392 Kbps
Width                                    : 688 pixels
Height                                   : 368 pixels
Display aspect ratio                     : 1.85:1
Frame rate                               : 23.976 fps
Color space                              : YUV
Chroma subsampling                       : 4:2:0
Bit depth                                : 8 bits
Scan type                                : Progressive
Compression mode                         : Lossy
Bits/(Pixel*Frame)                       : 0.229
Stream size                              : 1.05 GiB (75%)
Writing library                          : XviD 1.2.1 (UTC 2008-12-04)

Audio
ID                                       : 1
Format                                   : AC-3
Format/Info                              : Audio Coding 3
Mode extension                           : CM (complete main)
Format settings, Endianness              : Big
Codec ID                                 : 2000
Duration                                 : 1h 48mn
Bit rate mode                            : Constant
Bit rate                                 : 448 Kbps
Channel(s)                               : 6 channels
Channel positions                        : Front: L C R, Side: L R, LFE
Sampling rate                            : 48.0 KHz
Bit depth                                : 16 bits
Compression mode                         : Lossy
Stream size                              : 347 MiB (24%)
Alignment                                : Split accross interleaves
Interleave, duration                     : 42 ms (1.00 video frame)
Interleave, preload duration             : 500 ms

iMDB:
Kod:
http://www.imdb.com/title/tt1441395/

vlcsnap-2014-07-03-20h56.png


vlcsnap-2014-07-03-20h56.png


vlcsnap-2014-07-03-20h57.png


Single Extraction | No Password | Interchangeable Links: | Working 100% |

Kod:
http://uploaded.net/file/8t7f1yao/UTS.2013.BRRip.XviD.eXceSs.part1.rar
http://uploaded.net/file/gnvvs6r4/UTS.2013.BRRip.XviD.eXceSs.part2.rar
http://uploaded.net/file/a3yu1gl7/UTS.2013.BRRip.XviD.eXceSs.part3.rar

http://rapidgator.net/file/d694b6ff1a52cdaf04ba1f1b67e0358b/UTS.2013.BRRip.XviD.eXceSs.part1.rar.html
http://rapidgator.net/file/fbfaf815ac0e12056324009dae664f4f/UTS.2013.BRRip.XviD.eXceSs.part2.rar.html
http://rapidgator.net/file/d0fa008a869c1c94de0fa1de93358287/UTS.2013.BRRip.XviD.eXceSs.part3.rar.html

http://k2s.cc/file/720ada306cf7a/UTS.2013.BRRip.XviD.eXceSs.part1.rar
http://k2s.cc/file/582c02521f802/UTS.2013.BRRip.XviD.eXceSs.part2.rar
http://k2s.cc/file/47708734ad312/UTS.2013.BRRip.XviD.eXceSs.part3.rar

http://www.uploadable.ch/file/kGkrspkMhgbQ/UTS.2013.BRRip.XviD.eXceSs.part1.rar
http://www.uploadable.ch/file/EppHRPFdX6wJ/UTS.2013.BRRip.XviD.eXceSs.part2.rar
http://www.uploadable.ch/file/DxYfm9c7UNfT/UTS.2013.BRRip.XviD.eXceSs.part3.rar
 
Top