Šta je novo?
Član
Učlanjen(a)
09.05.2011
Poruka
7.549
Umbrage (2009) LIMITED DVDRip Xvid-UnKnOwN
Release Date: 22 August 2011 (Ireland)
File Size: 1.19 GB


caa0ced4c1.jpg

Kod:
General
Complete name: uUnKnOwN.avi
Format : AVI
Format/Info: Audio Video Interleave
File size: 1.19 GiB
Duration : 1h 30mn
Overall bit rate : 1 880 Kbps

****************************************************

Video
ID : 0
Format : MPEG-4 Visual
Format profile : Advanced [email protected]
Format settings, BVOP: 2
Format settings, QPel: No
Format settings, GMC : No warppoints
Format settings, Matrix: Default (H.263)
Codec ID : XVID
Codec ID/Hint: XviD
Duration : 1h 30mn
Bit rate : 1 486 Kbps
Width: 720 pixels
Height : 304 pixels
Display aspect ratio : 2.35:1
Frame rate : 25.000 fps
Color space: YUV
Chroma subsampling : 4:2:0
Bit depth: 8 bits
Scan type: Progressive
Compression mode : Lossy
Bits/(Pixel*Frame) : 0.271
Stream size: 960 MiB (79%)
Writing library: XviD 1.2.1 (UTC 2008-12-04)

****************************************************

Audio
ID : 1
Format : AC-3
Format/Info: Audio Coding 3
Mode extension : CM (complete main)
Codec ID : 2000
Duration : 1h 30mn
Bit rate mode: Constant
Bit rate : 384 Kbps
Channel(s) : 6 channels
Channel positions: Front: L C R, Side: L R, LFE
Sampling rate: 48.0 KHz
Bit depth: 16 bits
Compression mode : Lossy
Stream size: 248 MiB (20%)
Alignment: Aligned on interleaves
Interleave, duration : 32 ms (0.80 video frame)
Kod:
http://www.imdb.com/title/tt1349486/

Download Singl Links:
Kod:
http://www.fileserve.com/file/YsRqjfS/
http://www.filesonic.com/file/2656469464/
http://www.wupload.com/file/518147691
http://www.filejungle.com/f/2DA2Xz
 
Top