Šta je novo?

UFO Conspiracy: Hunt for the Truth

  • Začetnik teme KixMM
  • Datum pokretanja
K

KixMM

Učlanjen(a)
29.07.2020
Poruka
17


In the 70 years since the famed Roswell UFO crash, there have been other allegations of government cover-ups involving alien phenomena; some believe there is a long history of UFO reports that have been purposely hidden from the public.

Audio: English, Russian, Czech, Hungarian, Turkish
DVB Subtitle: Croatian, Estonian, Danish, Norwegian, Romanian, Slovenian, Serbian, Swedish, Finnish, Greek, Bulgarian
SRT Subtitle: Bulgarian, Danish, Estonian, Finnish, Greek, Croatian, Norwegian, Romanian (I recommend DVB Subtitle)

Kod:
General
Format                                   : MPEG-TS
File size                                : 3.93 GiB
Duration                                 : 1 h 19 min
Overall bit rate mode                    : Variable
Overall bit rate                         : 7 088 kb/s

Video
Format                                   : AVC
Format/Info                              : Advanced Video Codec
Format profile                           : [email protected]
Format settings                          : CABAC / 4 Ref Frames
Format settings, CABAC                   : Yes
Format settings, Reference frames        : 4 frames
Format settings, GOP                     : M=5, N=12
Duration                                 : 1 h 19 min
Bit rate                                 : 5 445 kb/s
Maximum bit rate                         : 3 156 kb/s
Width                                    : 1 920 pixels
Height                                   : 1 080 pixels
Display aspect ratio                     : 16:9
Frame rate                               : 25.000 FPS
Standard                                 : Component
Color space                              : YUV
Chroma subsampling                       : 4:2:0
Bit depth                                : 8 bits
Scan type                                : Interlaced
Scan type, store method                  : Separated fields
Scan order                               : Top Field First
Bits/(Pixel*Frame)                       : 0.105
Stream size                              : 3.02 GiB (77%)
Color range                              : Limited
Color primaries                          : BT.709
Transfer characteristics                 : BT.709
Matrix coefficients                      : BT.709

Audio #1
ID                                       : 3303 (0xCE7)
Menu ID                                  : 4202 (0x106A)
Format                                   : MPEG Audio
Format version                           : Version 1
Format profile                           : Layer 2
Codec ID                                 : 3
Duration                                 : 1 h 19 min
Bit rate mode                            : Constant
Bit rate                                 : 256 kb/s
Channel(s)                               : 2 channels
Sampling rate                            : 48.0 kHz
Frame rate                               : 41.667 FPS (1152 SPF)
Compression mode                         : Lossy
Delay relative to video                  : 32 ms
Stream size                              : 145 MiB (4%)
Language                                 : English

Audio #2
ID                                       : 4015 (0xFAF)
Menu ID                                  : 4202 (0x106A)
Format                                   : MPEG Audio
Format version                           : Version 1
Format profile                           : Layer 2
Codec ID                                 : 3
Duration                                 : 1 h 19 min
Bit rate mode                            : Constant
Bit rate                                 : 256 kb/s
Channel(s)                               : 2 channels
Sampling rate                            : 48.0 kHz
Frame rate                               : 41.667 FPS (1152 SPF)
Compression mode                         : Lossy
Delay relative to video                  : 32 ms
Stream size                              : 145 MiB (4%)
Language                                 : Russian

Audio #3
ID                                       : 4135 (0x1027)
Menu ID                                  : 4202 (0x106A)
Format                                   : MPEG Audio
Format version                           : Version 1
Format profile                           : Layer 2
Codec ID                                 : 3
Duration                                 : 1 h 19 min
Bit rate mode                            : Constant
Bit rate                                 : 256 kb/s
Channel(s)                               : 2 channels
Sampling rate                            : 48.0 kHz
Frame rate                               : 41.667 FPS (1152 SPF)
Compression mode                         : Lossy
Delay relative to video                  : 32 ms
Stream size                              : 145 MiB (4%)
Language                                 : Czech

Audio #4
ID                                       : 4137 (0x1029)
Menu ID                                  : 4202 (0x106A)
Format                                   : MPEG Audio
Format version                           : Version 1
Format profile                           : Layer 2
Codec ID                                 : 3
Duration                                 : 1 h 19 min
Bit rate mode                            : Constant
Bit rate                                 : 256 kb/s
Channel(s)                               : 2 channels
Sampling rate                            : 48.0 kHz
Frame rate                               : 41.667 FPS (1152 SPF)
Compression mode                         : Lossy
Delay relative to video                  : 32 ms
Stream size                              : 145 MiB (4%)
Language                                 : Hungarian

Audio #5
ID                                       : 4159 (0x103F)
Menu ID                                  : 4202 (0x106A)
Format                                   : MPEG Audio
Format version                           : Version 1
Format profile                           : Layer 2
Codec ID                                 : 3
Duration                                 : 1 h 19 min
Bit rate mode                            : Constant
Bit rate                                 : 256 kb/s
Channel(s)                               : 2 channels
Sampling rate                            : 48.0 kHz
Frame rate                               : 41.667 FPS (1152 SPF)
Compression mode                         : Lossy
Delay relative to video                  : 32 ms
Stream size                              : 145 MiB (4%)
Language                                 : Turkish

Text #1
ID                                       : 6503 (0x1967)
Menu ID                                  : 4202 (0x106A)
Format                                   : DVB Subtitle
Codec ID                                 : 6
Duration                                 : 1 h 19 min
Delay relative to video                  : 2 s 480 ms
Language                                 : Estonian

Text #2
ID                                       : 6512 (0x1970)
Menu ID                                  : 4202 (0x106A)
Format                                   : DVB Subtitle
Codec ID                                 : 6
Duration                                 : 1 h 19 min
Delay relative to video                  : 2 s 480 ms
Language                                 : Swedish

Text #3
ID                                       : 6513 (0x1971)
Menu ID                                  : 4202 (0x106A)
Format                                   : DVB Subtitle
Codec ID                                 : 6
Duration                                 : 1 h 19 min
Delay relative to video                  : 2 s 480 ms
Language                                 : Danish

Text #4
ID                                       : 6528 (0x1980)
Menu ID                                  : 4202 (0x106A)
Format                                   : DVB Subtitle
Codec ID                                 : 6
Duration                                 : 1 h 19 min
Delay relative to video                  : 2 s 480 ms
Language                                 : Norwegian

Text #5
ID                                       : 6591 (0x19BF)
Menu ID                                  : 4202 (0x106A)
Format                                   : DVB Subtitle
Codec ID                                 : 6
Duration                                 : 1 h 19 min
Delay relative to video                  : 2 s 480 ms
Language                                 : Romanian

Text #6
ID                                       : 6592 (0x19C0)
Menu ID                                  : 4202 (0x106A)
Format                                   : DVB Subtitle
Codec ID                                 : 6
Duration                                 : 1 h 19 min
Delay relative to video                  : 2 s 480 ms
Language                                 : Slovenian

Text #7
ID                                       : 6593 (0x19C1)
Menu ID                                  : 4202 (0x106A)
Format                                   : DVB Subtitle
Codec ID                                 : 6
Duration                                 : 1 h 19 min
Delay relative to video                  : 2 s 480 ms
Language                                 : Serbian

Text #8
ID                                       : 6594 (0x19C2)
Menu ID                                  : 4202 (0x106A)
Format                                   : DVB Subtitle
Codec ID                                 : 6
Duration                                 : 1 h 19 min
Delay relative to video                  : 2 s 480 ms
Language                                 : Croatian

Text #9
ID                                       : 6595 (0x19C3)
Menu ID                                  : 4202 (0x106A)
Format                                   : DVB Subtitle
Codec ID                                 : 6
Duration                                 : 1 h 19 min
Delay relative to video                  : 2 s 480 ms
Language                                 : Finnish

Text #10
ID                                       : 6642 (0x19F2)
Menu ID                                  : 4202 (0x106A)
Format                                   : DVB Subtitle
Codec ID                                 : 6
Duration                                 : 1 h 19 min
Delay relative to video                  : 2 s 600 ms
Language                                 : Greek

Text #11
ID                                       : 6644 (0x19F4)
Menu ID                                  : 4202 (0x106A)
Format                                   : DVB Subtitle
Codec ID                                 : 6
Duration                                 : 1 h 19 min
Delay relative to video                  : 2 s 480 ms
Language                                 : Bulgarian
Download:
Kod:
https://giga-down.com/p3w2mx41kvfl
 
Top