Šta je novo?

Trouble aka Фрка (2019)

  • Začetnik teme simark
  • Datum pokretanja
S

simark

Učlanjen(a)
05.09.2009
Poruka
190
Ф р к а на српском Trouble 2019

Пред Ускрс стиже нови цртани на српском језику. У вишој резолуцији и са додатним енглеским звуком. Срећан Васкрс.



Complete name : Фрка - Trouble.2019.720p.BluRay.x264.AAC.Dual-simark.mkv

File size : 883 MiB
Duration : 1 h 27 min

Video
Codec ID : V_MPEG4/ISO/AVC
Bit rate : 1 149 kb/s
Width : 1 280 pixels
Height : 682 pixels
Display aspect ratio : 1.85:1
Frame rate : 24.000 FPS
Stream size : 721 MiB (82%)
Language : English

Audio #1
Codec ID : A_AAC-2
Bit rate : 128 kb/s
Channel(s) : 2 channels
Sampling rate : 48.0 kHz
Stream size : 80.0 MiB (9%)
Language : Serbian

Audio #2
Codec ID : A_AAC-2
Bit rate : 128 kb/s
Channel(s) : 2 channels
Sampling rate : 48.0 kHz
Stream size : 80.4 MiB (9%)
Language : English



Hidden content
You need to react to this post in order to see this content.
Нема шифре...
 
Top