Šta je novo?

Tri palme za dve bitange i ribicu (1998)

  • Začetnik teme xandor
  • Datum pokretanja
xandor

xandor

UPLOADER
Učlanjen(a)
25.09.2009
Poruka
1.212
Tri palme za dve bitange i ribicu (1998) DVDRip




Kod:
http://www.imdb.com/title/tt0149291/

Opis: Tri palme za dve bitange i ribicu je film snimljen 1998. prica je o zivotu u Jugoslaviji tokom devedesetih godina proslog veka. Radnja je smestena u 1993 godinu i prati nekoliko aktera koji usled opsteg haosa koji vlada na sve strane pristaju na stvari koje im u normalnim okolnostima nikada ne bi ni pale na pamet. Umorni od svega, dolaze na briljantnu ideju da opljackaju banku i odsele se na neko egzoticno ostrvo...







Kod:
http://uptobox.com/pdwwdvt13l2k
 
Poslednja izmena:
Wolf 13

Wolf 13

MODERATOR
Učlanjen(a)
10.10.2009
Poruka
13.278
Tri palme za dve bitange i ribicu (1998) DVDrip E-AC3 x264 by Wolf
(MKV)



Kod:
 https://www.imdb.com/title/tt0149291/
General
Unique ID : 169155365482963692529816920637081193416 (0x7F42236BCE5D2E64CE0D3945200D0BC8)
Complete name : Tri palme za dve bitange i ribicu (1998) DVDrip E-AC3 x264 by Wolf.mkv
Format : Matroska
Format version : Version 4 / Version 2
File size : 1.22 GiB
Duration : 1 h 39 min
Overall bit rate : 1 758 kb/s
Encoded date : UTC 2018-08-23 15:00:17 / UTC 2018-08-23T06:32:35Z
Writing application : mkvmerge v25.0.0 ('Prog Noir') 64-bit
Writing library : libebml v1.3.6 + libmatroska v1.4.9 / Lavf57.7.2

Video
ID : 1
Format : AVC
Format/Info : Advanced Video Codec
Format profile : High [email protected]
Format settings : CABAC / 5 Ref Frames
Format settings, CABAC : Yes
Format settings, ReFrames : 5 frames
Codec ID : V_MPEG4/ISO/AVC
Duration : 1 h 39 min
Bit rate : 1 500 kb/s
Width : 720 pixels
Height : 510 pixels
Display aspect ratio : 16:9
Original display aspect rat : 2.008
Frame rate mode : Constant
Frame rate : 25.000 FPS
Color space : YUV
Chroma subsampling : 4:2:0
Bit depth : 10 bits
Scan type : Progressive
Bits/(Pixel*Frame) : 0.163
Stream size : 1.02 GiB (83%)
Title : Tri palme za dve bitange i ribicu (1998)
Writing library : x264 core 155 r2901 7d0ff22
Encoding settings : cabac=1 / ref=5 / deblock=1:0:0 / analyse=0x3:0x113 / me=hex / subme=8 / psy=1 / psy_rd=1.00:0.00 / mixed_ref=1 / me_range=16 / chroma_me=1 / trellis=2 / 8x8dct=1 / cqm=0 / deadzone=21,11 / fast_pskip=1 / chroma_qp_offset=-2 / threads=3 / lookahead_threads=1 / sliced_threads=0 / nr=0 / decimate=1 / interlaced=0 / bluray_compat=0 / constrained_intra=0 / bframes=3 / b_pyramid=2 / b_adapt=1 / b_bias=0 / direct=3 / weightb=1 / open_gop=0 / weightp=2 / keyint=250 / keyint_min=25 / scenecut=40 / intra_refresh=0 / rc_lookahead=50 / rc=2pass / mbtree=1 / bitrate=1500 / ratetol=1.0 / qcomp=0.60 / qpmin=0 / qpmax=81 / qpstep=4 / cplxblur=20.0 / qblur=0.5 / vbv_maxrate=150000 / vbv_bufsize=187500 / nal_hrd=none / filler=0 / ip_ratio=1.40 / aq=1:1.00
Language : Serbian
Default : Yes
Forced : No
Color range : Limited
Color primaries : BT.601 PAL
Transfer characteristics : BT.709
Matrix coefficients : BT.601
Statistics Tags Issue : mkvmerge v25.0.0 ('Prog Noir') 64-bit 2018-08-23 15:00:17 / mkvmerge v25.0.0 ('Prog Noir') 64-bit 2018-08-23 15:00:17 / UTC 2018-08-23T06:32:35Z
FromStats_BitRate : 1499951
FromStats_Duration : 01:39:26.000000000
FromStats_FrameCount : 149149
FromStats_StreamSize : 1118588889

Audio
ID : 2
Format : E-AC-3
Format/Info : Enhanced Audio Coding 3
Codec ID : A_EAC3
Duration : 1 h 39 min
Bit rate mode : Constant
Bit rate : 256 kb/s
Channel(s) : 6 channels
Channel positions : Front: L C R, Side: L R, LFE
Sampling rate : 48.0 kHz
Frame rate : 187.500 FPS (256 SPF)
Compression mode : Lossy
Stream size : 182 MiB (15%)
Title : Tri palme za dve bitange i ribicu (1998)
Language : Serbian
Service kind : Complete Main
Default : Yes
Forced : No
Statistics Tags Issue : mkvmerge v25.0.0 ('Prog Noir') 64-bit 2018-08-23 15:00:17 / mkvmerge v25.0.0 ('Prog Noir') 64-bit 2018-08-23 15:00:17 / UTC 2018-08-23T06:32:35Z
FromStats_BitRate : 256000
FromStats_Duration : 01:39:25.792000000
FromStats_FrameCount : 186431
FromStats_StreamSize : 190905344

Text
ID : 3
Format : UTF-8
Codec ID : S_TEXT/UTF8
Codec ID/Info : UTF-8 Plain Text
Title : Tri palme za dve bitange i ribicu
Language : Serbian
Default : Yes
Forced : No
Statistics Tags Issue : mkvmerge v25.0.0 ('Prog Noir') 64-bit 2018-08-23 15:00:17 / mkvmerge v25.0.0 ('Prog Noir') 64-bit 2018-08-23 15:00:17 / UTC 2018-08-23T06:32:35Z
FromStats_BitRate : 4
FromStats_Duration : 01:36:28.200000000
FromStats_FrameCount : 75
FromStats_StreamSize : 3191

Hidden content
You need to react to this post in order to see this content.

Hidden content
You need to react to this post in order to see this content.

 
Top