Šta je novo?

Treto poluvreme aka The Third Half (2012)

VIP IPTV
Učlanjen(a)
09.12.2012
Poruka
20.923
Treće poluvreme (2012)
1t0gj4u58s6lycdobjad.jpg

http://www.imdb.com/title/tt2069100/

efc3a2f1371d42beb58eb562d0c880ca.png


Trece poluvreme je prica o nekoliko ljudi okupljenih oko najvaznije sporedne stvari na svetu- fudbala, u najturbulentnijem vremenu u svetskoj istoriji - Drugom svetskom ratu. Istinita prica o fudbalskom treneru nemacko-jevrejskog porekla, koji je makedonski tim odveo do titule prvaka u fudbalskoj nacistickoj ligi!

Rezija: Darko Mitrevski

Hidden content
You need to react to this post in order to see this content.
 
MODERATOR
Učlanjen(a)
10.10.2009
Poruka
13.307
Treto poluvreme (2012) DVDrip DD5.1 x264 by Wolf
(MKV)

cznQlN3.jpg


Kod:
 https://www.imdb.com/title/tt2069100/

General
Unique ID : 179728042780916732871248164913569749504 (0x87365CA8591B7774C9D2489919C65A00)
Complete name : Treto poluvreme (2012) DVDrip DD5.1 x264 by Wolf.mkv
Format : Matroska
Format version : Version 4
File size : 1.41 GiB
Duration : 1 h 48 min
Overall bit rate : 1 857 kb/s
Encoded date : UTC 2019-09-03 13:47:31
Writing application : mkvmerge v37.0.0 ('Leave It') 64-bit
Writing library : libebml v1.3.9 + libmatroska v1.5.2

Video
ID : 1
Format : AVC
Format/Info : Advanced Video Codec
Format profile : [email protected]
Format settings : CABAC / 16 Ref Frames
Format settings, CABAC : Yes
Format settings, Reference : 16 frames
Codec ID : V_MPEG4/ISO/AVC
Duration : 1 h 48 min
Bit rate : 1 600 kb/s
Width : 720 pixels
Height : 304 pixels
Display aspect ratio : 2.35:1
Frame rate mode : Constant
Frame rate : 25.000 FPS
Color space : YUV
Chroma subsampling : 4:2:0
Bit depth : 8 bits
Scan type : Progressive
Bits/(Pixel*Frame) : 0.292
Stream size : 1.21 GiB (86%)
Title : Treto poluvreme (2012)
Writing library : x264 core 157 r2935 545de2f
Encoding settings : cabac=1 / ref=16 / deblock=1:-1:-1 / analyse=0x3:0x133 / me=umh / subme=10 / psy=1 / psy_rd=1.00:0.15 / mixed_ref=1 / me_range=24 / chroma_me=1 / trellis=2 / 8x8dct=1 / cqm=0 / deadzone=21,11 / fast_pskip=1 / chroma_qp_offset=-3 / threads=6 / lookahead_threads=1 / sliced_threads=0 / nr=0 / decimate=1 / interlaced=0 / bluray_compat=0 / constrained_intra=0 / bframes=8 / b_pyramid=2 / b_adapt=2 / b_bias=0 / direct=3 / weightb=1 / open_gop=0 / weightp=2 / keyint=250 / keyint_min=25 / scenecut=40 / intra_refresh=0 / rc_lookahead=60 / rc=2pass / mbtree=1 / bitrate=1600 / ratetol=1.0 / qcomp=0.60 / qpmin=0 / qpmax=69 / qpstep=4 / cplxblur=20.0 / qblur=0.5 / vbv_maxrate=300000 / vbv_bufsize=300000 / nal_hrd=none / filler=0 / ip_ratio=1.40 / aq=1:1.00
Language : Macedonian
Default : Yes
Forced : No
Color range : Limited
Color primaries : BT.601 PAL
Transfer characteristics : BT.709
Matrix coefficients : BT.601

Audio
ID : 2
Format : E-AC-3
Format/Info : Enhanced AC-3
Commercial name : Dolby Digital Plus
Codec ID : A_EAC3
Duration : 1 h 48 min
Bit rate mode : Constant
Bit rate : 256 kb/s
Channel(s) : 6 channels
Channel layout : L R C LFE Ls Rs
Sampling rate : 48.0 kHz
Frame rate : 31.250 FPS (1536 SPF)
Compression mode : Lossy
Delay relative to video : -5 ms
Stream size : 199 MiB (14%)
Title : Treto poluvreme (2012)
Language : Macedonian
Service kind : Complete Main
Default : Yes
Forced : No

Text #1
ID : 3
Format : UTF-8
Codec ID : S_TEXT/UTF8
Codec ID/Info : UTF-8 Plain Text
Duration : 1 h 44 min
Bit rate : 51 b/s
Count of elements : 995
Stream size : 39.4 KiB (0%)
Title : TREĆE POLUVREME
Language : Serbian
Default : Yes
Forced : No

Text #2
ID : 4
Format : UTF-8
Codec ID : S_TEXT/UTF8
Codec ID/Info : UTF-8 Plain Text
Duration : 1 h 24 min
Bit rate : 55 b/s
Count of elements : 811
Stream size : 34.7 KiB (0%)
Title : The Third Half (2012)
Language : English
Default : No
Forced : No

epYscVA.png

Hidden content
You need to react to this post in order to see this content.
zbNKcak.jpg

Hidden content
You need to react to this post in order to see this content.
ix6rN4o.png

XGEGAUF.jpg
 
Član
Učlanjen(a)
26.10.2009
Poruka
521
The Third Half (2012) 1080p HDTVRip H264-WJungle

6Q7dGjy.jpg


IMDB information:
Title: Treto poluvreme (2012)
Genres: Drama, History, Romance
Description: Determined to build the best football club in the country, Dimitry hires the German coach, Rudolph Spitz, to galvanize his rag tag team but - when the first Nazi tanks roll through the city and Rebecca, the beautiful daughter of a local banker, elopes with his star player, all Dimitry's plans must change.
Director: Darko Mitrevski
Writer: Darko Mitrevski, Grgur Strujic
Actors: Katarina Ivanovska, Sasko Kocev, Richard Sammel
Rating: 7.7
Runtime: 113 min
Language: Macedonian, German, Ladino, Bulgarian, English, Serbian, Spanish
Country: Republic of Macedonia, Czech Republic, United States
Rate: N/A

IMDb:
Kod:
https://www.imdb.com/title/tt2069100/

mkv | 2.37 GB | 1920x1080
01:48:32 | V_MPEG4/ISO/AVC | Unknown language
3125 Kbps | 24.000 fps | 16:9

Screenshots:
sbfPsCP.jpg


RapidGator:
Kod:
https://rapidgator.net/file/5ff8861213f215384aaffcb588034d27/The_Third_Half_2012_1080p_TVRip_H264-WJungle.mkv
 
Top