Šta je novo?

Transformers Age of Extinction (2014)

UPLOADER
Učlanjen(a)
23.01.2014
Poruka
3.424
Transformers Age Of Extinction 2014 480p HDCAM x264-Pimp4003

s55wkzfr0xlsvmwdoz1.jpg


:info:

Release Date: 29/06/2014Filename: Transformers.Age.of.Extinction.2014.480p.HDCAM.x264-Pimp4003Source: HDCAMSize: 1.42 GBGenre: Action | Adventure | Sci-FiVideo: AVC | 720 x 480 | 1248 KbpsAudio: English | AAC | 128 kbps

:screen:


tp0kxasicp1yfpgy8ouv.png


:download:

Kod:
http://ul.to/38gkkkj5/Transformers.Age.Of.Extinction.2014.HDCAM.x264.Pimp4003.mp4

http://rapidgator.net/file/de61271eb5224afa0f7a15b36283c98d/Transformers.Age.Of.Extinction.2014.HDCAM.x264.Pimp4003.mp4.html

http://letitbit.net/download/48406.4733aeb287c6b1f4dd28f2b438f9/Transformers.Age.Of.Extinction.2014.HDCAM.x264.Pimp4003.mp4.html

http://turbobit.net/0v7cl1zblw89/Transformers.Age.Of.Extinction.2014.HDCAM.x264.Pimp4003.mp4.html

http://www.kingfiles.net/xlssraiptm0w/Transformers.Age.Of.Extinction.2014.HDCAM.x264.Pimp4003.mp4

http://fileom.com/dmr9p59nqe6n/Transformers.Age.Of.Extinction.2014.HDCAM.x264.Pimp4003.mp4.html

https://www.oboom.com/QE76JQ1J/Transformers.Age.Of.Extinction.2014.HDCAM.x264.Pimp4003.mp4
 
UPLOADER
Učlanjen(a)
23.01.2014
Poruka
3.424
Transformers 4 Age Of Extinction 2014 TS XviD-johnyoung

73071050477693144209.jpg



:info:

Kod:
http://www.imdb.com/title/tt2109248/

Release Date: July 11, 2014Filename: Transformers.4.Age.Of.Extinction.2014.TS.XViD-johnyoungSource: TSSize: 1.60 GBGenre: Action | Adventure | Sci-FiVideo: XviD | 720×342 | 1 311 KbpsAudio: English | MP3 | 128 Kbps

:screen:

66812869707448142234.jpg


:download:

Kod:
http://ul.to/w6kcizbq/age.of.ext.avi

http://rapidgator.net/file/29387baa88a574ab30c8b06faeefc7c1/age.of.ext.avi.html

http://letitbit.net/download/87825.8d2a594f30777d49f223a7302f5f/age.of.ext.avi.html

http://freakshare.com/files/kw7lxb9y/age.of.ext.avi.html

http://fileom.com/n9mt40cucufg/age.of.ext.avi.html

http://www.kingfiles.net/js5obyq2wqwt/age.of.ext.avi.html

http://ultrafile.me/0u1kmm78i1oh/age.of.ext.avi.html

https://www.oboom.com/NJ0WZ938/age.of.ext.avi
 
Poslednja izmena:
UPLOADER
Učlanjen(a)
23.01.2014
Poruka
3.424
Transformers Age of Extinction (2014) 720p R6 x264 1GB-MKV

98777776863091050365.jpg


:info:

File: GOTRNSMAOEXT72R6.mkv
Size: 1048448789 bytes (999.88 MiB), duration: 02:40:13, avg.bitrate: 873 kb/s
Audio: aac, 24000 Hz, stereo, s16
Video: h264, yuv420p, 1280×556, 29.97 fps(r)
Source: 720p R6 HTC x264 AAC-M2M
Notes: Chinese HardSub & Look Like HDTS than R6

:screen:

81364307700941578480.jpeg


:download:

Kod:
http://uptobox.com/e5f84t283xh4[/B]
[B]
http://www.sockshare.com/file/862E32E7244B9250
 
Poslednja izmena od urednika:
Član
Učlanjen(a)
07.07.2009
Poruka
787
Transformers: Age of Extinction (2014) V2 HDTS H264 AAC 2 CH-BLiTZCRiEG

transformers-age-of-extinction-2014-19.jpg


:info:
IMDB

Kod:
http://www.imdb.com/title/tt2109248/?ref_=nv_sr_1

:screen:

screenshot_3.png


:download:

Kod:
http://turbobit.net/3zhb6eugocwr.html
 
UPLOADER
Učlanjen(a)
23.01.2014
Poruka
3.424
Transformers Age of Extinction 2014 HDRip 800MB-Micromkv

44278695608457058230.jpg


:info:

Kod:
http://www.imdb.com/title/tt2109248/?ref_=nv_sr_1

[FORMAT]…………………..[ Matroska (MKV)
[GENRE]……………………[ Action | Adventure | Sci-Fi
[NO OF CDs]…………………[ 1
[FILE SIZE]………………..[ 800MB
[RESOLUTION]:……………….[ 720*304
[LANGUAGE]…………………[ English
[SUBTITLES]………………..[ Yes – English
[ENCODER]………………….[ A @ Micromkv
[SOURCE]…………………..[HDRiP EVO

:screen:

23634875281405198912.jpg


:download:

Kod:
http://www.firedrive.com/file/1D4DC12403D711DE
http://ul.to/bdk2wmfq
http://rapidgator.net/file/d61df77e3a62500c333407720d2773af/BCKUP-TFRMZ.rar.html
http://clicknupload.com/m8n1vdzpyh3k
http://billionuploads.com/ad6b6e7iembl
http://180upload.com/0elzy49rlugx
 
Član
Učlanjen(a)
09.05.2011
Poruka
7.549
************************************************************
Transformers Age of Extinction (2014) DVDRip XviD EVO
File Size: 1.43 GiB

************************************************************

transformers_age_extinction_poster.jpg


INFO:
Kod:
General
Complete name                            : G:\Transformers.Age.of.Extinction.2014.DVDRip.XviD-EVO.avi
Format                                   : AVI
Format/Info                              : Audio Video Interleave
File size                                : 1.43 GiB
Duration                                 : 2h 45mn
Overall bit rate                         : 1 240 Kbps

Video
ID                                       : 0
Format                                   : MPEG-4 Visual
Format profile                           : [email protected]
Format settings, BVOP                    : No
Format settings, QPel                    : No
Format settings, GMC                     : No warppoints
Format settings, Matrix                  : Default (H.263)
Codec ID                                 : XVID
Codec ID/Hint                            : XviD
Duration                                 : 2h 45mn
Bit rate                                 : 1 099 Kbps
Width                                    : 640 pixels
Height                                   : 272 pixels
Display aspect ratio                     : 2.35:1
Frame rate                               : 23.976 fps
Color space                              : YUV
Chroma subsampling                       : 4:2:0
Bit depth                                : 8 bits
Scan type                                : Progressive
Compression mode                         : Lossy
Bits/(Pixel*Frame)                       : 0.263
Stream size                              : 1.27 GiB (89%)
Writing library                          : XviD 1.1.2 (UTC 2006-11-01)

Audio
ID                                       : 1
Format                                   : MPEG Audio
Format version                           : Version 1
Format profile                           : Layer 3
Mode                                     : Joint stereo
Mode extension                           : MS Stereo
Codec ID                                 : 55
Codec ID/Hint                            : MP3
Duration                                 : 2h 45mn
Source duration                          : 2h 45mn
Bit rate mode                            : Constant
Bit rate                                 : 128 Kbps
Channel(s)                               : 2 channels
Sampling rate                            : 48.0 KHz
Compression mode                         : Lossy
Stream size                              : 151 MiB (10%)
Alignment                                : Split accross interleaves
Interleave, duration                     : 24 ms (0.58 video frame)
Writing library                          : LAME3.98

iMDB:
Kod:
http://www.imdb.com/title/tt2109248/

vlcsnap-2014-09-18-23h46.png


vlcsnap-2014-09-18-23h46.png


vlcsnap-2014-09-18-23h46.png


Single Extraction | No Password | Interchangeable Links: | Working 100% |

Kod:
http://uploaded.net/file/61hsv6oc/TraA0E14.EVO.rar
http://rapidgator.net/file/089c6aca1b4405fd1528cdd4fc346ef8/TraA0E14.EVO.rar.html
https://www.oboom.com/I5W3ZBGM/TraA0E14.EVO.rar
http://xerver.co/8ez9s92sz2ge/TraA0E14.EVO.rar
 
Član
Učlanjen(a)
07.07.2009
Poruka
787
Transformers: Age of Extinction (2014) 720p BluRay x264 YIFY

Transformers-Age-of-Extinction-2014-wallpapers-1.jpg


:info:
IMDB

Kod:
http://www.imdb.com/title/tt2109248/?ref_=nv_sr_1

:screen:

screenshot_15.png


:download:

Kod:
http://turbobit.net/11wghh079p6l.html
 
Top