Šta je novo?

Ti mene nosis aka You Carry Me (2015)

MODERATOR
Učlanjen(a)
02.05.2009
Poruka
29.537
Ti Mene Nosis (2015)


screen.png




Ti-Mene-Nosis-2015-SF.png




info.png




Dora je zanemarena devojčica koja mašta da postane fudbalski menadžer. U njen život se iznenada vraća otac s kojim neočekivano razvija blizak odnos. Ives nema predaha, jer joj jutra započinju brigom o ocu koji ima Alchajmerovu bolest. Njen život je ispunjen brojnim sitnim obavezama koje je iscrpljuju, a planovi za lepši život su sve više izvan dohvata. Nataša je uspešan TV producent koja očekuje svoje prvo dete. Zlokobne slutnje o zdravstvenom stanju se potvrđuju i započinje njeno suočavanje sa neizvesnom budućnošću.

Trajanje: 154'
Režija: Ivona Juka
Scenario: Ivona Juka
Uloge: Lana Baric, Vojislav Brajovic, Natasa Janjic, Goran Hajdukovic








screen.png





Ti-Mene-Nosis-avi.jpg




Download.png



Hidden content
You need to react to this post in order to see this content.
 
Poslednja izmena:
MODERATOR
Učlanjen(a)
10.10.2009
Poruka
13.297
Ti mene nosis (2015) 720p WEBrip DD5.1 x264 by Wolf
(MKV)

UYuFSmy.jpg


Kod:
 https://www.imdb.com/title/tt2486856/

General
Unique ID : 33540330104332890923712238445420235920 (0x193BA1F2AE24D5D8B67753C5B8724C90)
Complete name : Ti mene nosis (2015) 720p WEBRip DD5.1 x264 by Wolf.mkv
Format : Matroska
Format version : Version 4
File size : 1.98 GiB
Duration : 2 h 32 min
Overall bit rate : 1 858 kb/s
Encoded date : UTC 2019-10-28 19:59:12
Writing application : mkvmerge v38.0.0 ('The Silent Type') 64-bit
Writing library : libebml v1.3.9 + libmatroska v1.5.2

Video
ID : 1
Format : AVC
Format/Info : Advanced Video Codec
Format profile : [email protected]
Format settings : CABAC / 16 Ref Frames
Format settings, CABAC : Yes
Format settings, Reference : 16 frames
Codec ID : V_MPEG4/ISO/AVC
Duration : 2 h 32 min
Bit rate : 1 600 kb/s
Width : 1 280 pixels
Height : 544 pixels
Display aspect ratio : 2.35:1
Frame rate mode : Constant
Frame rate : 25.000 FPS
Color space : YUV
Chroma subsampling : 4:2:0
Bit depth : 8 bits
Scan type : Progressive
Bits/(Pixel*Frame) : 0.092
Stream size : 1.71 GiB (86%)
Title : Ti mene nosis (2015)
Writing library : x264 core 157 r2935 545de2f
Encoding settings : cabac=1 / ref=16 / deblock=1:-1:-1 / analyse=0x3:0x133 / me=umh / subme=10 / psy=1 / psy_rd=1.00:0.15 / mixed_ref=1 / me_range=24 / chroma_me=1 / trellis=2 / 8x8dct=1 / cqm=0 / deadzone=21,11 / fast_pskip=1 / chroma_qp_offset=-3 / threads=6 / lookahead_threads=1 / sliced_threads=0 / nr=0 / decimate=1 / interlaced=0 / bluray_compat=0 / constrained_intra=0 / bframes=8 / b_pyramid=2 / b_adapt=2 / b_bias=0 / direct=3 / weightb=1 / open_gop=0 / weightp=2 / keyint=250 / keyint_min=25 / scenecut=40 / intra_refresh=0 / rc_lookahead=60 / rc=2pass / mbtree=1 / bitrate=1600 / ratetol=1.0 / qcomp=0.60 / qpmin=0 / qpmax=69 / qpstep=4 / cplxblur=20.0 / qblur=0.5 / vbv_maxrate=300000 / vbv_bufsize=300000 / nal_hrd=none / filler=0 / ip_ratio=1.40 / aq=1:1.00
Language : Croatian
Default : Yes
Forced : No
Color range : Limited
Color primaries : BT.601 PAL
Transfer characteristics : BT.709
Matrix coefficients : BT.601

Audio
ID : 2
Format : E-AC-3
Format/Info : Enhanced AC-3
Commercial name : Dolby Digital Plus
Codec ID : A_EAC3
Duration : 2 h 32 min
Bit rate mode : Constant
Bit rate : 256 kb/s
Channel(s) : 6 channels
Channel layout : L R C LFE Ls Rs
Sampling rate : 48.0 kHz
Frame rate : 31.250 FPS (1536 SPF)
Compression mode : Lossy
Delay relative to video : -5 ms
Stream size : 280 MiB (14%)
Title : Ti mene nosis (2015)
Language : Croatian
Service kind : Complete Main
Default : Yes
Forced : No

epYscVA.png

Hidden content
You need to react to this post in order to see this content.
zbNKcak.jpg

Hidden content
You need to react to this post in order to see this content.
ZdDeySx.png

Q8qkuhz.jpg
 
Top