Šta je novo?

The wild aka Дивљина (2006)

  • Začetnik teme simark
  • Datum pokretanja
S

simark

Učlanjen(a)
05.09.2009
Poruka
190
Дивљина
на српском
The Wild

Старији цртани стиже на српском језику. Два дела српског звука фале,
на почетку цртаног и на пуном сату. И поред тога цртани је гледљив, у
вишој резолуцији и са остављеним енглеским звуком, фајл је врло мали.


Complete name : Дивљина скр. - The.Wild.2006.720p.BluRay.x264.Dual-simark.mkv

File size : 596 MiB
Duration : 1 h 13 min

Video
Codec ID : V_MPEG4/ISO/AVC
Bit rate : 886 kb/s
Width : 1 280 pixels
Height : 694 pixels
Display aspect ratio : 1.85:1
Frame rate : 23.976 (24000/1001) FPS
Stream size : 468 MiB (78%)

Audio #1
Codec ID : A_AAC-2
Bit rate : 114 kb/s
Channel(s) : 2 channels
Sampling rate : 48.0 kHz
Stream size : 60.0 MiB (10%)
Language : Serbian

Audio #2
Codec ID : A_AAC-2
Bit rate : 126 kb/s
Channel(s) : 2 channels
Sampling rate : 48.0 kHz
Stream size : 66.6 MiB (11%)
Language : English


Hidden content
You need to react to this post in order to see this content.
Нема шифре...
 
Top