Šta je novo?
Član
Učlanjen(a)
09.05.2011
Poruka
7.549
The Veil (2016) 720p WEB-DL x264 AC3 ETRG
File Size: 2.91 GiB

11188cb7c15fd.jpg


RELEAsEN0TEs
Kod:
General
Complete name                  : The Veil.2016.720p.WEB-DL.x264.AC3-ETRG.mkv
Format                         : Matroska
Format version                 : Version 4 / Version 2
File size                      : 2.91 GiB
Duration                       : 1h 33mn
Overall bit rate               : 4 446 Kbps
Encoded date                   : UTC 2016-01-19 21:28:11
Writing application            : mkvmerge v6.7.0 ('Back to the Ground') 64bit built on Jan  8 2014 15:10:52
Writing library                : libebml v1.3.0 + libmatroska v1.4.1

Video
ID                             : 1
Format                         : AVC
Format/Info                    : Advanced Video Codec
Format profile                 : [email protected]
Format settings, CABAC         : No
Format settings, ReFrames      : 2 frames
Codec ID                       : V_MPEG4/ISO/AVC
Duration                       : 1h 33mn
Bit rate                       : 3 974 Kbps
Width                          : 1 280 pixels
Height                         : 532 pixels
Display aspect ratio           : 2.40:1
Frame rate mode                : Constant
Frame rate                     : 23.976 fps
Color space                    : YUV
Chroma subsampling             : 4:2:0
Bit depth                      : 8 bits
Scan type                      : Progressive
Bits/(Pixel*Frame)             : 0.243
Stream size                    : 2.60 GiB (89%)
Language                       : English

Audio
ID                             : 2
Format                         : AC-3
Format/Info                    : Audio Coding 3
Mode extension                 : CM (complete main)
Format settings, Endianness    : Big
Codec ID                       : A_AC3
Duration                       : 1h 33mn
Bit rate mode                  : Constant
Bit rate                       : 384 Kbps
Channel count                  : 6 channels
Channel positions              : Front: L C R, Side: L R, LFE
Sampling rate                  : 48.0 KHz
Bit depth                      : 16 bits
Compression mode               : Lossy
Stream size                    : 257 MiB (9%)
Language                       : English
Default                        : Yes
Forced                         : No

IMDB Ratings : 5.0/10 >> 660 users >> Top 250: #N/A
Kod:
http://www.imdb.com/title/tt3533916/

sCREENsH0Ts

one.png


two.png


three.png


D0WNL0AD
Kod:
http://rapidgator.net/file/55ab0222a37a57c45d9879fac986c768/The_Veil.2016.720p.WEB-DL.ETRG.part1.rar.html
http://rapidgator.net/file/e44f0d468733ff75fe7c1148dbbadcd9/The_Veil.2016.720p.WEB-DL.ETRG.part2.rar.html
http://rapidgator.net/file/34c91316fbb70014698a860c2e503931/The_Veil.2016.720p.WEB-DL.ETRG.part3.rar.html

http://uploaded.net/file/9mk4rktl/The%20Veil.2016.720p.WEB-DL.ETRG.part1.rar
http://uploaded.net/file/1ymcg2oz/The%20Veil.2016.720p.WEB-DL.ETRG.part2.rar
http://uploaded.net/file/3oflgw9t/The%20Veil.2016.720p.WEB-DL.ETRG.part3.rar

http://k2s.cc/file/8544142703bfa/The_Veil.2016.720p.WEB-DL.ETRG.part1.rar
http://k2s.cc/file/0e2f50e5604ac/The_Veil.2016.720p.WEB-DL.ETRG.part2.rar
http://k2s.cc/file/a9ef678163456/The_Veil.2016.720p.WEB-DL.ETRG.part3.rar

http://nitroflare.com/view/CAA39DDB9B46DE2/The_Veil.2016.720p.WEB-DL.ETRG.part1.rar
http://nitroflare.com/view/AA21021D66C610A/The_Veil.2016.720p.WEB-DL.ETRG.part2.rar
http://nitroflare.com/view/0BF3C56A61C14E6/The_Veil.2016.720p.WEB-DL.ETRG.part3.rar
 
Član
Učlanjen(a)
09.05.2011
Poruka
7.549
The Veil (2016) DVDRip XviD AC3 iFT
File Size: 1.48 GiB

veil.jpg


RELEAsEN0TEs
Kod:
RELEASE NAME.....: The.Veil.2016.DVDRip.XviD.AC3-iFT
RELEASE SIZE.....: 1.48 GiB
RUNTIME..........: 1h 33mn 33s 
VIDEO CODEC......: XviD
FRAMERATE........: 23.976 fps
BITRATE..........: 1 788 Kbps
RESOLUTION.......: 720 x 288
AUDIO............: English AC3 @ 448 kbps      
SOURCE...........: DVD NTSC R1 < Thanks >
SUBTITLES........: N/A
ENCODER..........: JDamiao

[b]Title:[/b] The Veil (2016)
[b]Genres:[/b] Horror
[b]Description:[/b] Thirty years after members of a religious cult committed mass suicide, the lone survivor returns to the scene of the tragedy with a documentary crew in tow.
[b]Director:[/b] Phil Joanou
[b]Writer:[/b] Robert Ben Garant (screenplay)
[b]Actors:[/b] Jessica Alba, Thomas Jane, Lily Rabe, Shannon Woodward
[b]Rating:[/b] 5.0
[b]Votes:[/b] 380
[b]Rated:[/b] R
[b]Runtime:[/b] 93 min

IMDB Ratings : 4.8/10 >> 1.454 users >> Top 250: #N/A
Metascore: N/A/100
Kod:
http://www.imdb.com/title/tt3533916/

sCREENsH0Ts

yx3W3UW.png


Y0y388P.png


6znZ2nP.png


D0WNL0AD
Kod:
http://rapidgator.net/file/468d54cfb7b6f2b640174a650e043705/TheVe1L.DVDRip.iFT.part1.rar.html
http://rapidgator.net/file/5c87b9a95685af7d4a9987457154684a/TheVe1L.DVDRip.iFT.part2.rar.html
http://rapidgator.net/file/17fdf30c00ff916c936045ce4a3280fd/TheVe1L.DVDRip.iFT.part3.rar.html

http://uploaded.net/file/3bgz59zx/TheVe1L.DVDRip.iFT.part1.rar
http://uploaded.net/file/r0fx2c7d/TheVe1L.DVDRip.iFT.part2.rar
http://uploaded.net/file/kwoho1nj/TheVe1L.DVDRip.iFT.part3.rar

http://alfafile.net/file/zY24/TheVe1L.DVDRip.iFT.part1.rar
http://alfafile.net/file/zY2o/TheVe1L.DVDRip.iFT.part2.rar
http://alfafile.net/file/zY2h/TheVe1L.DVDRip.iFT.part3.rar

http://nitroflare.com/view/217EEE7FAA3FADC/TheVe1L.DVDRip.iFT.part1.rar
http://nitroflare.com/view/2474AC6708D40CF/TheVe1L.DVDRip.iFT.part2.rar
http://nitroflare.com/view/DD9A8359D72C74A/TheVe1L.DVDRip.iFT.part3.rar
 
Top