Šta je novo?
SerbianForum

This is a sample guest message. Register a free account today to become a member! Once signed in, you'll be able to participate on this site by adding your own topics and posts, as well as connect with other members through your own private inbox!

The Shape of Water (2017)

  • Začetnik teme drsko66
  • Datum pokretanja
Wolf 13

Wolf 13

Moderator
#3
The Shape of Water (2017)
(MKV)

f8XJ6st.jpg


The.Shape.of.Water.2017.720p.BRrip.x264.by.Wolf

Kod:
 http://www.imdb.com/title/tt5580390/
General
Unique ID : 115631044302431157493008290362039697333 (0x56FDBAA47B2749179B57E861F7237FB5)
Complete name : The.Shape.of.Water.2017.720p.BRrip.x264.by.Wolf.mkv
Format : Matroska
Format version : Version 4 / Version 2
File size : 1.60 GiB
Duration : 2 h 3 min
Overall bit rate : 1 857 kb/s
Encoded date : UTC 2018-03-02 14:52:13 / UTC 2018-03-01T09:29:48Z
Writing application : mkvmerge v19.0.0 ('Brave Captain') 64-bit
Writing library : libebml v1.3.5 + libmatroska v1.4.8 / Lavf57.7.2

Video
ID : 1
Format : AVC
Format/Info : Advanced Video Codec
Format profile : High@L5.1
Format settings : CABAC / 4 Ref Frames
Format settings, CABAC : Yes
Format settings, ReFrames : 4 frames
Codec ID : V_MPEG4/ISO/AVC
Duration : 2 h 3 min
Bit rate : 1 600 kb/s
Width : 1 280 pixels
Height : 688 pixels
Display aspect ratio : 1.85:1
Frame rate mode : Constant
Frame rate : 23.976 (24000/1001) FPS
Color space : YUV
Chroma subsampling : 4:2:0
Bit depth : 8 bits
Scan type : Progressive
Bits/(Pixel*Frame) : 0.076
Stream size : 1.35 GiB (84%)
Title : The Shape of Water (2017)
Writing library : x264 core 148 r2708 86b7198
Encoding settings : cabac=1 / ref=2 / deblock=1:0:0 / analyse=0x3:0x113 / me=hex / subme=4 / psy=1 / psy_rd=1.00:0.00 / mixed_ref=0 / me_range=16 / chroma_me=1 / trellis=1 / 8x8dct=1 / cqm=0 / deadzone=21,11 / fast_pskip=1 / chroma_qp_offset=0 / threads=3 / lookahead_threads=1 / sliced_threads=0 / nr=0 / decimate=1 / interlaced=0 / bluray_compat=0 / constrained_intra=0 / bframes=3 / b_pyramid=2 / b_adapt=1 / b_bias=0 / direct=1 / weightb=1 / open_gop=0 / weightp=1 / keyint=240 / keyint_min=24 / scenecut=40 / intra_refresh=0 / rc_lookahead=20 / rc=2pass / mbtree=1 / bitrate=1600 / ratetol=1.0 / qcomp=0.60 / qpmin=0 / qpmax=69 / qpstep=4 / cplxblur=20.0 / qblur=0.5 / vbv_maxrate=300000 / vbv_bufsize=300000 / nal_hrd=none / filler=0 / ip_ratio=1.40 / aq=1:1.00
Language : English
Default : Yes
Forced : No
Color range : Limited
Color primaries : BT.709
Transfer characteristics : BT.709
Matrix coefficients : BT.709
Statistics Tags Issue : mkvmerge v19.0.0 ('Brave Captain') 64-bit 2018-03-02 14:52:13 / mkvmerge v19.0.0 ('Brave Captain') 64-bit 2018-03-02 14:52:13 / UTC 2018-03-01T09:29:48Z
FromStats_BitRate : 1599434
FromStats_Duration : 02:03:19.434000000
FromStats_FrameCount : 177409
FromStats_StreamSize : 1479364150

Audio
ID : 2
Format : E-AC-3
Format/Info : Enhanced Audio Coding 3
Codec ID : A_EAC3
Duration : 2 h 3 min
Bit rate mode : Constant
Bit rate : 256 kb/s
Channel(s) : 6 channels
Channel positions : Front: L C R, Side: L R, LFE
Sampling rate : 48.0 kHz
Frame rate : 187.500 FPS (256 SPF)
Compression mode : Lossy
Delay relative to video : -21 ms
Stream size : 226 MiB (14%)
Title : The Shape of Water (2017)
Language : English
Service kind : Complete Main
Default : Yes
Forced : No
Statistics Tags Issue : mkvmerge v19.0.0 ('Brave Captain') 64-bit 2018-03-02 14:52:13 / mkvmerge v19.0.0 ('Brave Captain') 64-bit 2018-03-02 14:52:13 / UTC 2018-03-01T09:29:48Z
FromStats_BitRate : 256000
FromStats_Duration : 02:03:19.456000000
FromStats_FrameCount : 231233
FromStats_StreamSize : 236782592

Text
ID : 3
Format : UTF-8
Codec ID : S_TEXT/UTF8
Codec ID/Info : UTF-8 Plain Text
Title : OBLIK VODE
Language : Serbian
Default : Yes
Forced : No
Statistics Tags Issue : mkvmerge v19.0.0 ('Brave Captain') 64-bit 2018-03-02 14:52:13 / mkvmerge v19.0.0 ('Brave Captain') 64-bit 2018-03-02 14:52:13 / UTC 2018-03-01T09:29:48Z
FromStats_BitRate : 38
FromStats_Duration : 01:56:53.750000000
FromStats_FrameCount : 902
FromStats_StreamSize : 33974
uptobox.jpg

You need to like this in order to view this content.
Xi6ouAg.png

MYzhWSN.jpg
 

Top