Šta je novo?

The Night Before (2015)

Član
Učlanjen(a)
09.05.2011
Poruka
7.549
The Night Before (2015) 720p WEB-DL x264 AC3 EVO
File Size: 2.78 GiB

eEGZgNZgN3sZWwoSaL1u2rTGlzj.jpg


RELEAsEN0TEs
Kod:
General
Complete name                  : T.N.B.2015.720p.WEB-DL.X264.AC3-EVO.mkv
Format                         : Matroska
Format version                 : Version 4 / Version 2
File size                      : 2.79 GiB
Duration                       : 1h 41mn
Overall bit rate               : 3 931 Kbps
Movie name                     : EVO
Encoded date                   : UTC 2016-02-09 07:11:16
Writing application            : mkvmerge v6.7.0 ('Back to the Ground') 64bit built on Jan  8 2014 15:10:52
Writing library                : libebml v1.3.0 + libmatroska v1.4.1

Video
ID                             : 1
Format                         : AVC
Format/Info                    : Advanced Video Codec
Format profile                 : [email protected]
Format settings, CABAC         : Yes
Format settings, ReFrames      : 4 frames
Codec ID                       : V_MPEG4/ISO/AVC
Duration                       : 1h 41mn
Bit rate                       : 3 587 Kbps
Width                          : 1 280 pixels
Height                         : 534 pixels
Display aspect ratio           : 2.40:1
Frame rate mode                : Constant
Frame rate                     : 23.976 fps
Color space                    : YUV
Chroma subsampling             : 4:2:0
Bit depth                      : 8 bits
Scan type                      : Progressive
Bits/(Pixel*Frame)             : 0.219
Stream size                    : 2.46 GiB (88%)
Writing library                : x264 core 142 r2479 dd79a61
Default                        : Yes
Forced                         : No

Audio
ID                             : 2
Format                         : AC-3
Format/Info                    : Audio Coding 3
Mode extension                 : CM (complete main)
Format settings, Endianness    : Big
Codec ID                       : A_AC3
Duration                       : 1h 41mn
Bit rate mode                  : Constant
Bit rate                       : 384 Kbps
Channel count                  : 6 channels
Channel positions              : Front: L C R, Side: L R, LFE
Sampling rate                  : 48.0 KHz
Bit depth                      : 16 bits
Compression mode               : Lossy
Delay relative to video        : -5ms
Stream size                    : 279 MiB (10%)
Title                          : Surround
Language                       : English
Default                        : Yes
Forced                         : No

IMDB Ratings : 7.2/10 >> 9.525 users >> Top 250: #N/A
Metascore: 58/100
Kod:
http://www.imdb.com/title/tt3530002/

sCREENsH0Ts

p00019.png


p00020.png


p00021.png


D0WNL0AD
Kod:
http://rapidgator.net/file/4d550bdf082ccb2a7183385f89e5f023/TNb720p.WEB-DL.part1.rar.html
http://rapidgator.net/file/67689bd953964d3354292a8e0eacbb8f/TNb720p.WEB-DL.part2.rar.html
http://rapidgator.net/file/71383941fccc528e1231222b6ccc386f/TNb720p.WEB-DL.part3.rar.html
http://rapidgator.net/file/e13764a698de325f56c34b8d013effc8/TNb720p.WEB-DL.part4.rar.html

http://uploaded.net/file/utx9u13k/TNb720p.WEB-DL.part1.rar
http://uploaded.net/file/c75bvlal/TNb720p.WEB-DL.part2.rar
http://uploaded.net/file/uq0wedr5/TNb720p.WEB-DL.part3.rar
http://uploaded.net/file/f29h5n2h/TNb720p.WEB-DL.part4.rar

http://alfafile.net/file/HR82/TNb720p.WEB-DL.part1.rar
http://alfafile.net/file/HR8a/TNb720p.WEB-DL.part2.rar
http://alfafile.net/file/HR85/TNb720p.WEB-DL.part3.rar
http://alfafile.net/file/HR8f/TNb720p.WEB-DL.part4.rar

http://nitroflare.com/view/B4DBEC73297F94A/TNb720p.WEB-DL.part1.rar
http://nitroflare.com/view/11166B37CED5B19/TNb720p.WEB-DL.part2.rar
http://nitroflare.com/view/1AEE5543981E635/TNb720p.WEB-DL.part3.rar
http://nitroflare.com/view/86B28060BFFD1E5/TNb720p.WEB-DL.part4.rar
 
Top