Šta je novo?

The Lion King aka Краљ лавова (2019)

  • Začetnik teme simark
  • Datum pokretanja
S

simark

Učlanjen(a)
05.09.2009
Poruka
190
Краљ лавова НОВИ ЗВУК
на српском НОВИ ЗВУК
The Lion King new SOUND

Филмска верзија старог цртаног са одличним српским звуком. Звук је замењен, а снимак је нов одличан и више резолуције. Остављен је
енглески звук и фајл је сада већи. Уживајте...




Complete name :
Краљ лавова нов-The.Lion.King.2019.720p.BluRay.x264.Dual-simark.mkv

File size : 1.15 GiB
Duration : 1 h 58 min

Video
Codec ID : V_MPEG4/ISO/AVC
Bit rate : 1 100 kb/s
Width : 1 280 pixels
Height : 714 pixels
Display aspect ratio : 16:9
Frame rate : 23.976 (24000/1001) FPS
Stream size : 930 MiB (79%)

Audio #1
Codec ID : A_AAC-2
Bit rate : 128 kb/s
Channel(s) : 2 channels
Sampling rate : 48.0 kHz
Stream size : 108 MiB (9%)
Language : Serbian

Audio #2
Codec ID : A_AAC-2
Bit rate : 156 kb/s
Channel(s) : 2 channels
Sampling rate : 48.0 kHz
Stream size : 132 MiB (11%)
Language : English



Hidden content
You need to react to this post in order to see this content.
Нема шифре...
 
Poslednja izmena:
T

tender

Učlanjen(a)
18.08.2009
Poruka
1
Краљ лавова НОВИ ЗВУК
на српском НОВИ ЗВУК
The Lion King new SOUND

Филмска верзија старог цртаног са одличним српским звуком. Звук је замењен, а снимак је нов одличан и више резолуције. Остављен је
енглески звук и фајл је сада већи. Уживајте...




Complete name :
Краљ лавова нов-The.Lion.King.2019.720p.BluRay.x264.Dual-simark.mkv

File size : 1.15 GiB
Duration : 1 h 58 min

Video
Codec ID : V_MPEG4/ISO/AVC
Bit rate : 1 100 kb/s
Width : 1 280 pixels
Height : 714 pixels
Display aspect ratio : 16:9
Frame rate : 23.976 (24000/1001) FPS
Stream size : 930 MiB (79%)

Audio #1
Codec ID : A_AAC-2
Bit rate : 128 kb/s
Channel(s) : 2 channels
Sampling rate : 48.0 kHz
Stream size : 108 MiB (9%)
Language : Serbian

Audio #2
Codec ID : A_AAC-2
Bit rate : 156 kb/s
Channel(s) : 2 channels
Sampling rate : 48.0 kHz
Stream size : 132 MiB (11%)
Language : English



[Hidden content]
Нема шифре...
super
 
Top