Šta je novo?

Tekken Kazuyas Revenge (2014)

UPLOADER
Učlanjen(a)
23.01.2014
Poruka
3.424
Tekken Kazuyas Revenge 2014 DVDRip SUBBED XviD MP3-RBG

90238747895314544892.jpg



:info:

Kod:
http://www.imdb.com/title/tt3462696/

Release Date: 11th August 2014Filename: Tekken.Kazuyas.Revenge.2014.DVDRip.SUBBED.XviD.MP3-RBGSource: DVDRSize: 1.02 GBGenre: ActionVideo: XviD, 720×304 at 1442 kbpsAudio: English, MP-3 at 192 kbpsSubs: Spanish


:screen:

03612546778354443944.png


:download:

Kod:
http://uploaded.net/file/a8y9pucq/Tekken.Kazuyas.Revenge.2014.DVDRip.SUBBED.XviD.MP3-RARBG.avi

http://rapidgator.net/file/cb397d7310905695a40fe6f4b78d2552/Tekken.Kazuyas.Revenge.2014.DVDRip.SUBBED.XviD.MP3-RARBG.avi.html

https://www.oboom.com/J8CCCXB0/Tekken.Kazuyas.Revenge.2014.DVDRip.SUBBED.XviD.MP3-RARBG.avi

http://letitbit.net/download/74991.7cf1b17cb38a956c3c9d1b70802f/Tekken.Kazuyas.Revenge.2014.DVDRip.SUBBED.XviD.MP3-RARBG.avi.html

http://www.gboxes.com/cg50bur6jiph/Tekken.Kazuyas.Revenge.2014.DVDRip.SUBBED.XviD.MP3-RARBG.avi

http://www.kingfiles.net/fdn81ra5fvpo/Tekken.Kazuyas.Revenge.2014.DVDRip.SUBBED.XviD.MP3-RARBG.avi.html

http://ultrafile.me/6d0i0e9xib4k/Tekken.Kazuyas.Revenge.2014.DVDRip.SUBBED.XviD.MP3-RARBG.avi.html

http://uploadrocket.net/apsm82lm0iwv/Tekken.Kazuyas.Revenge.2014.DVDRip.SUBBED.XviD.MP3-RARBG.avi.html

http://xerver.co/6cddidpn00y0/Tekken.Kazuyas.Revenge.2014.DVDRip.SUBBED.XviD.MP3-RARBG.avi
 
Član
Učlanjen(a)
09.05.2011
Poruka
7.549
************************************************************
Tekken 2 Katzyuas Revenge (2014) BRRip x264 RARBG
File Size: 778 MiB

************************************************************

tekken2.jpg



INFO:
Kod:
General
Complete name                            : Tekken.2.Katzyuas.Revenge.2014.BRRip.x264-RARBG.mp4
Format                                   : MPEG-4
Format profile                           : Base Media
Codec ID                                 : isom
File size                                : 777 MiB
Duration                                 : 1h 29mn
Overall bit rate                         : 1 217 Kbps

Video
ID                                       : 1
Format                                   : AVC
Format/Info                              : Advanced Video Codec
Format profile                           : [email protected]
Format settings, CABAC                   : Yes
Format settings, ReFrames                : 5 frames
Codec ID                                 : avc1
Codec ID/Info                            : Advanced Video Coding
Duration                                 : 1h 28mn
Bit rate                                 : 1 100 Kbps
Width                                    : 720 pixels
Height                                   : 300 pixels
Display aspect ratio                     : 2.40:1
Frame rate mode                          : Constant
Frame rate                               : 23.976 fps
Color space                              : YUV
Chroma subsampling                       : 4:2:0
Bit depth                                : 8 bits
Scan type                                : Progressive
Bits/(Pixel*Frame)                       : 0.212
Stream size                              : 692 MiB (89%)
Writing library                          : x264 core 142 r2438 af8e768

Audio
ID                                       : 2
Format                                   : AAC
Format/Info                              : Advanced Audio Codec
Format profile                           : LC
Codec ID                                 : 40
Duration                                 : 1h 28mn
Duration_LastFrame                       : 32ms
Bit rate mode                            : Constant
Bit rate                                 : 128 Kbps
Channel(s)                               : 2 channels
Channel(s)_Original                      : 6 channels
Channel positions                        : Front: L C R, Side: L R, LFE
Sampling rate                            : 48.0 KHz
Compression mode                         : Lossy
Stream size                              : 81.1 MiB (10%)
Language                                 : English

iMDB:
Kod:
http://imdb.com/title/tt3462696/

tekken2.png


Single Extraction | No Password | Interchangeable Links: | Working 100% |

Kod:
http://rapidgator.net/file/3205740feab4cefab93048b650a0c154/Tekken.2.BRRip.RARBG.rar.html
http://uploaded.net/file/ygt78scp/Tekken.2.BRRip.RARBG.rar
http://k2s.cc/file/12e5f49dd7163/Tekken.2.BRRip.RARBG.rar
https://www.oboom.com/2X0XF31Q/Tekken.2.BRRip.RARBG.rar
 
Top