Šta je novo?

Teenage Mutant Ninja Turtles (2014)

UPLOADER
Učlanjen(a)
23.01.2014
Poruka
3.424
Teenage Mutant Ninja Turtles 2014 HD CAM XViD-KnoR

gkbJYdY.jpg




:info:

Kod:
http://www.imdb.com/title/tt1291150/?ref_=hm_otw_tt1


:screen:

A6zgSY0.jpg


:download:

Kod:
[/B][/B]
[B][B]http://uploaded.net/file/ztl1diae
https://www.oboom.com/DRZKEACS
http://www.kingfiles.net/x3e13uzudgg4
http://180upload.com/q1ck0s8k6h82

jly528fydiysvd80sjc8.gif

 
Poslednja izmena:
Član
Učlanjen(a)
09.05.2011
Poruka
7.549
************************************************************
Teenage Mutant Ninja Turtles (2014) HDRip x264 CPG
File Size: 1.05 GiB

************************************************************

ninja.jpg


INFO:
Kod:
General
Complete name                            : Teenage Mutant Ninja Turtles (2014) HDRip x264 AAC-CPG.mp4
Format                                   : MPEG-4
Format profile                           : Base Media
Codec ID                                 : isom
File size                                : 1.05 GiB
Duration                                 : 1h 41mn
Overall bit rate                         : 1 485 Kbps
Movie name                               : Teenage Mutant Ninja Turtles (2014) HDRip x264 AAC-CPG
Writing application                      : Lavf55.48.101

Video
ID                                       : 1
Format                                   : AVC
Format/Info                              : Advanced Video Codec
Format profile                           : [email protected]
Format settings, CABAC                   : Yes
Format settings, ReFrames                : 4 frames
Codec ID                                 : avc1
Codec ID/Info                            : Advanced Video Coding
Duration                                 : 1h 41mn
Bit rate                                 : 1 352 Kbps
Width                                    : 720 pixels
Height                                   : 304 pixels
Display aspect ratio                     : 2.35:1
Frame rate mode                          : Constant
Frame rate                               : 23.976 fps
Color space                              : YUV
Chroma subsampling                       : 4:2:0
Bit depth                                : 8 bits
Scan type                                : Progressive
Bits/(Pixel*Frame)                       : 0.258
Stream size                              : 982 MiB (91%)
Writing library                          : x264 core 142 r2431 ac76440

Audio
ID                                       : 2
Format                                   : AAC
Format/Info                              : Advanced Audio Codec
Format profile                           : LC
Codec ID                                 : 40
Duration                                 : 1h 41mn
Bit rate mode                            : Constant
Bit rate                                 : 128 Kbps
Channel(s)                               : 2 channels
Channel positions                        : Front: L R
Sampling rate                            : 48.0 KHz
Compression mode                         : Lossy
Stream size                              : 92.7 MiB (9%)
Language                                 : English

iMDB:
Kod:
http://www.imdb.com/title/tt1291150/


ninjat.png


Single Extraction | No Password | Interchangeable Links: | Working 100% |

Kod:
http://rapidgator.net/file/28fbd6c4e8b7d04667c1ff09ae952421/TMNT14HDRip.CPG.rar.html
http://uploaded.net/file/p5ay7pup/TMNT14HDRip.CPG.rar
http://xerver.co/px65kssualae/TMNT14HDRip.CPG.rar
http://k2s.cc/file/68b1a09155b82/TMNT14HDRip.CPG.rar
 
UPLOADER
Učlanjen(a)
23.01.2014
Poruka
3.424
Teenage Mutant Ninja Turtles 2014 720p WEB-DL 800MB-Micromkv

TMNT4.png


:info:

Kod:
http://www.imdb.com/title/tt1291150/?ref_=hm_otw_tt1

[FORMAT]…………………..[ Matroska (MKV)
[GENRE]……………………[Action | Adventure | Comedy
[NO OF CDs]…………………[ 1
[FILE SIZE]………………..[ 800MB
[RESOLUTION]:……………….[ 1280*532
[LANGUAGE]…………………[ English
[SUBTITLES]………………..[Yes, English (Included)
[ENCODER]………………….[ A @ Micromkv
[SOURCE]…………………..[720p 5.1 PLAYNOW
:screen:

Teenage_Mutant_Ninja_Turtles_2014_720p_WEB_DL_80.jpg


:download:

Kod:
http://ul.to/uklzqjbw
http://rapidgator.net/file/0beb1f6491c283ddfaa32b09ded64f98/TMMNNT.rar.html
http://hugefiles.net/e1202iizlgco
http://clicknupload.com/m6p2umy4dqk9
http://billionuploads.com/7p0e103dfd4f
http://180upload.com/w3b71t8jvik2

jly528fydiysvd80sjc8.gif
 
Poslednja izmena:
Član
Učlanjen(a)
02.03.2013
Poruka
3.108
Teenage Mutant Ninja Turtles 2014 HDRip AC3 5.1 x264-BladeBDP

A1_ZZ6t_AHo_FL_SL1500.jpg


File: 2136458TMT2136458.mkv
Size: 1509110425 bytes (1.41 GiB), duration: 01:41:30, avg.bitrate: 1982 kb/s
Audio: ac3, 48000 Hz, 5:1
Video: h264, yuv420p, 720x304, 23.81 fps(r)
Subtitles: rum eng spa

2136458_TMT2136458_s.jpg


If U Like My Post Willing To Buy Premium For High Speed Resumable downloads Pls BuY Premium From This Links

Kod:
http://rapidgator.net/file/5f9f4e1bb5ea4062589c0187c4b1e487/2136458TMT2136458.mkv.html

http://keep2s.cc/file/b6dfd000d9fed/2136458TMT2136458.mkv

http://xerver.co/17wqrjkjw1x0/2136458TMT2136458.mkv



 
Član
Učlanjen(a)
07.07.2009
Poruka
787
Teenage Mutant Ninja Turtles (2014) HDRip x264 AAC-CPG

tmnt-teenage-mutant-ninja-turtles-movie-review.jpeg


:info:
IMDB

Kod:
http://www.imdb.com/title/tt1291150/?ref_=fn_al_tt_1

:screen:

screenshot_92.png


:download:

Kod:
http://turbobit.net/zz5li8rs1k88.html
 
Član
Učlanjen(a)
07.07.2009
Poruka
787
Teenage Mutant Ninja Turtles (2014) 1080p WEB-DL DD5.1 H264-RARBG

tmnt-teenage-mutant-ninja-turtles-movie-review.jpeg


:info:
IMDB

Kod:
http://www.imdb.com/title/tt1291150/

:screen:

nindza_kornjace.jpg


:download:

Kod:
http://turbobit.net/fq7n83hp30rk.html

prevod

Kod:
http://titlovi.com/downloads/default.ashx?type=1&mediaid=193521
 
Član
Učlanjen(a)
07.07.2009
Poruka
787
Teenage Mutant Ninja Turtles (2014) 1080p WEB-DL x264 AC3-JYK

tmnt-teenage-mutant-ninja-turtles-movie-review.jpeg


:info:
IMDB

Kod:
http://www.imdb.com/title/tt1291150/

:screen:

Untitled.png

:download:

Kod:
http://turbobit.net/m9d96hscl7lw.html

prevod

Kod:
http://titlovi.com/downloads/default.ashx?type=1&mediaid=193521
 
Član
Učlanjen(a)
02.03.2013
Poruka
3.108
Teenage Mutant Ninja Turtles 2014 HDRIP x264 AC3 TiTAN

A1_ZZ6t_AHo_FL_SL1500.jpg


File: 215346MNTT215346.mkv
Size: 1404083499 bytes (1.31 GiB), duration: 01:41:30, avg.bitrate: 1844 kb/s
Audio: ac3, 48000 Hz, stereo
Video: h264, yuv420p, 720x304, 23.98 fps(r)

215346_MNTT215346_s.jpg


If U Like My Post Willing To Buy Premium For High Speed Resumable downloads Pls BuY Premium From This Links

Kod:
http://rapidgator.net/file/221675ee8729f8a50aa3bbdca044083a/215346MNTT215346.mkv.html

http://xerver.co/odbo6y0ackjt/215346MNTT215346.mkv

http://keep2s.cc/file/cb43e37f7042e/215346MNTT215346.mkv


 
Član
Učlanjen(a)
02.03.2013
Poruka
3.108
Teenage Mutant Ninja Turtles 2014 HDRIP X264 AAC 5.1-BHRG

A1_ZZ6t_AHo_FL_SL1500.jpg


File: 21534689TMT21534698.mkv
Size: 1509110425 bytes (1.41 GiB), duration: 01:41:30, avg.bitrate: 1982 kb/s
Audio: ac3, 48000 Hz, 5:1
Video: h264, yuv420p, 720x304, 23.81 fps(r)
Subtitles: rum eng spa

21534689_TMT21534698_s.jpg


If U Like My Post Willing To Buy Premium For High Speed Resumable downloads Pls BuY Premium From This Links

Kod:
http://rapidgator.net/file/188c7b28f20ac5e106f29b83c218eae7/21534689TMT21534698.mkv.html

http://keep2s.cc/file/910b67d8cbf16/21534689TMT21534698.mkv

http://xerver.co/26jdnwkcq5cb/21534689TMT21534698.mkv



 
Top