Šta je novo?
UPLOADER
Učlanjen(a)
23.01.2014
Poruka
3.424
Taken 3 2015 720p HDRip H264 AC-3 5.1-CPG

JtkX8AM.png



:info:

Kod:
www.imdb.com/title/tt4341098

Release Date: 22nd January 2015
Filename: Taken.3.2014.720p.HDRip.H264.AAC.5.1-CPG
Source: HD
Size: 2.50 GB
Genre: Action | Thriller
Video: x264, 1280×544
Audio: English, AC-3 at 384kbps
Subs: HC Subs
IMDB Rating: 6.5/10 from 20,375 users
RT Critics: 3.4/10
Directed By: Olivier Megaton
Starring: Liam Neeson, Forest Whitaker, Maggie Grace


:screen:

2vKRHyi.jpg



:download:

Kod:
http://rg.to/file/2efcb55465f341a9c76ab1a08d804634/t3_720p.part1.rar.html
http://rg.to/file/8002ae128686d8eb60911ea1d8f3c77f/t3_720p.part2.rar.html

http://www.uploadable.ch/file/nS2NzfS9U9Bz/t3_720p.part1.rar
http://www.uploadable.ch/file/C42gJedtkMzy/t3_720p.part2.rar

http://uploaded.net/file/7vo9lflx/t3_720p.part1.rar
http://uploaded.net/file/ptqmwxei/t3_720p.part2.rar
 
Poslednja izmena:
Član
Učlanjen(a)
09.05.2011
Poruka
7.549

************************************************************
Taken 3 (2014) HC HDRip XviD AC3 EVO
File Size: 1.54 GiB
************************************************************


taken3.jpg


INFO:
Kod:
General
Complete name                  : Taken.3.2014.HC.HDRip.XviD.AC3-EVO.avi
Format                         : AVI
Format/Info                    : Audio Video Interleave
Format profile                 : OpenDML
Format settings                : rec
File size                      : 1.54 GiB
Duration                       : 1h 44mn
Overall bit rate               : 2 125 Kbps
Writing application            : AVI-Mux GUI 1.17.8.3, Feb 16 201019:42:50

Video
ID                             : 0
Format                         : MPEG-4 Visual
Format profile                 : Advanced [email protected]
Format settings, BVOP          : 2
Format settings, QPel          : No
Format settings, GMC           : No warppoints
Format settings, Matrix        : Default (H.263)
Muxing mode                    : Packed bitstream
Codec ID                       : XVID
Codec ID/Hint                  : XviD
Duration                       : 1h 44mn
Bit rate                       : 1 799 Kbps
Width                          : 720 pixels
Height                         : 304 pixels
Display aspect ratio           : 2.35:1
Frame rate                     : 25.000 fps
Color space                    : YUV
Chroma subsampling             : 4:2:0
Bit depth                      : 8 bits
Scan type                      : Progressive
Compression mode               : Lossy
Bits/(Pixel*Frame)             : 0.329
Stream size                    : 1.31 GiB (85%)
Writing library                : XviD 64

Audio
ID                             : 1
Format                         : AC-3
Format/Info                    : Audio Coding 3
Mode extension                 : CM (complete main)
Format settings, Endianness    : Big
Codec ID                       : 2000
Duration                       : 1h 44mn
Bit rate mode                  : Constant
Bit rate                       : 320 Kbps
Channel(s)                     : 6 channels
Channel positions              : Front: L C R, Side: L R, LFE
Sampling rate                  : 48.0 KHz
Bit depth                      : 16 bits
Compression mode               : Lossy
Stream size                    : 238 MiB (15%)
Alignment                      : Aligned on interleaves
Interleave, duration           : 64 ms (1.60 video frames)
Interleave, preload duration   : 192 ms

iMDB:
Kod:
http://www.imdb.com/title/tt2446042/

taken3.jpg


Single Extraction | No Password | Interchangeable Links: | Working 100% |

Kod:
http://uploaded.net/file/d43vsit6/T3HCHDRip.EVO.part1.rar
http://uploaded.net/file/m3q0vnpx/T3HCHDRip.EVO.part2.rar
http://uploaded.net/file/z1obnylp/T3HCHDRip.EVO.part3.rar

http://rapidgator.net/file/bf6e6f217e16a81c5378bebfebc0436a/T3HCHDRip.EVO.part1.rar.html
http://rapidgator.net/file/f3c174e96ddbe72736ab0c6862e947df/T3HCHDRip.EVO.part2.rar.html
http://rapidgator.net/file/3b61ce0371996868f2dde4c6e524e5df/T3HCHDRip.EVO.part3.rar.html

http://k2s.cc/file/fd56cb713f9a2/T3HCHDRip.EVO.part1.rar
http://k2s.cc/file/1a370e0094e23/T3HCHDRip.EVO.part2.rar
http://k2s.cc/file/72d4ac3a70bd8/T3HCHDRip.EVO.part3.rar

http://www.nitroflare.com/view/03F34A452D33F1F
http://www.nitroflare.com/view/144DDEA399C2917
http://www.nitroflare.com/view/DC9C4E254161C0D



share-enjoy.png


DON'T FORGET TO SAY THANKS IF YOU LIKE MY POST !
 
Top