Šta je novo?
Član
Učlanjen(a)
09.05.2011
Poruka
7.549
************************************************************
Take Care (2014) HDRip XViD AC3 H34LTH
File Size: 1.58 GiB

************************************************************

take.jpg


INFO:
General
Complete name : Take.Care.2014.HDRiP.XViD.AC3-H34LTH.avi
Format : AVI
Format/Info : Audio Video Interleave
File size : 1.58 GiB
Duration : 1h 33mn
Overall bit rate : 2 431 Kbps
Writing application : VirtualDubMod 1.5.10.2 (build 2540/release)
Writing library : VirtualDubMod build 2540/release

Video
ID : 0
Format : MPEG-4 Visual
Format profile : Advanced [email protected]
Format settings, BVOP : 2
Format settings, QPel : No
Format settings, GMC : No warppoints
Format settings, Matrix : Default (H.263)
Codec ID : XVID
Codec ID/Hint : XviD
Duration : 1h 33mn
Bit rate : 2 101 Kbps
Width : 720 pixels
Height : 384 pixels
Display aspect ratio : 1.85:1
Frame rate : 23.976 fps
Color space : YUV
Chroma subsampling : 4:2:0
Bit depth : 8 bits
Scan type : Progressive
Compression mode : Lossy
Bits/(Pixel*Frame) : 0.317
Stream size : 1.37 GiB (86%)
Writing library : XviD 64

Audio
ID : 1
Format : AC-3
Format/Info : Audio Coding 3
Mode extension : CM (complete main)
Format settings, Endianness : Big
Codec ID : 2000
Duration : 1h 33mn
Bit rate mode : Constant
Bit rate : 320 Kbps
Channel(s) : 6 channels
Channel positions : Front: L C R, Side: L R, LFE
Sampling rate : 48.0 KHz
Bit depth : 16 bits
Compression mode : Lossy
Stream size : 214 MiB (13%)
Alignment : Split accross interleaves
Interleave, duration : 42 ms (1.00 video frame)
Interleave, preload duration : 500 ms

iMDB:
Kod:
http://www.imdb.com/title/tt3120054/

p2014-12-09-12h29m04s94.png


p2014-12-09-12h29m19s238.png


p2014-12-09-12h29m32s118.png



Single Extraction | No Password | Interchangeable Links: | Working 100% |

Kod:
http://rapidgator.net/file/f6d3bb30f0668cbd83df82aed8054ae9/Take.Care.2014.HDRip.H34LTH.part1.rar.html
http://rapidgator.net/file/89212f93c324a9bb6643289e5f64220f/Take.Care.2014.HDRip.H34LTH.part2.rar.html
http://rapidgator.net/file/551025fe70b76c211dc3197cf8e240ec/Take.Care.2014.HDRip.H34LTH.part3.rar.html

http://uploaded.net/file/m9upx2bt/Take.Care.2014.HDRip.H34LTH.part1.rar
http://uploaded.net/file/pyipaooe/Take.Care.2014.HDRip.H34LTH.part2.rar
http://uploaded.net/file/m7c2o52x/Take.Care.2014.HDRip.H34LTH.part3.rar

http://k2s.cc/file/ef9f1f499ea5c/Take.Care.2014.HDRip.H34LTH.part1.rar
http://k2s.cc/file/31daa024f6a88/Take.Care.2014.HDRip.H34LTH.part2.rar
http://k2s.cc/file/7178311ab2e60/Take.Care.2014.HDRip.H34LTH.part3.rar

http://www.nitroflare.com/view/2528DD20B1E3A92
http://www.nitroflare.com/view/4A86784602A02A3
http://www.nitroflare.com/view/542040AF8A9369F
 
Top